<?xml version="1.0" standalone="no"?>
<!DOCTYPE svg PUBLIC "-//W3C//DTD SVG 1.1//EN" "http://www.w3.org/Graphics/SVG/1.1/DTD/svg11.dtd"[]>
<svg xmlns="http://www.w3.org/2000/svg" xmlns:xlink="http://www.w3.org/1999/xlink" version="1.1">
  <metadata>
Created by FontForge 20201107 at Mon Feb 23 15:19:20 2009
 By Unknown
Copyright (c) 2008 - 2009 Linotype GmbH, www.linotype.com. All rights reserved. This font software may not be reproduced, modified, disclosed or transferred without the express written approval of Linotype GmbH.
</metadata>
  <defs>
    <font id="DINNextLTPro-UltraLight">
      <glyph d="M434 0h-10c-6 0 -10 4 -10 10v284c0 112 -46 162 -139 162c-79 0 -145 -54 -145 -147v-299c0 -6 -4 -10 -10 -10h-10c-6 0 -10 4 -10 10v454c0 6 4 10 10 10h10c6 0 10 -4 10 -10v-67h1c24 55 78 87 146 87c107 0 167 -61 167 -183v-291c0 -6 -4 -10 -10 -10zM63 552
c-6 0 -7 3 -7 9v109c0 6 3 10 9 10h11c6 0 9 -4 9 -10v-64c0 -10 -1 -18 -5 -28l-7 -19c-2 -4 -5 -7 -10 -7z" />
      <glyph d="M102 10v660c0 6 4 10 10 10h11c6 0 10 -4 10 -10v-660c0 -6 -4 -10 -10 -10h-11c-6 0 -10 4 -10 10zM282 34c-5 3 -6 9 -3 14l8 9c4 4 10 4 15 1c27 -20 69 -39 114 -39c92 0 153 47 153 173v478c0 6 4 10 10 10h11c6 0 10 -4 10 -10v-479c0 -141 -73 -201 -184 -201
c-52 0 -101 19 -134 44z" />
      <glyph d="M127 620h-24c-6 0 -10 4 -10 10v40c0 6 4 10 10 10h24c6 0 10 -4 10 -10v-40c0 -6 -4 -10 -10 -10zM120 0h-10c-6 0 -10 4 -10 10v454c0 6 4 10 10 10h10c6 0 10 -4 10 -10v-454c0 -6 -4 -10 -10 -10zM357 620h-24c-6 0 -10 4 -10 10v40c0 6 4 10 10 10h24
c6 0 10 -4 10 -10v-40c0 -6 -4 -10 -10 -10zM253 -180h-4c-6 0 -10 4 -10 10v8c0 6 4 10 10 10h4c60 0 77 14 77 81v535c0 6 4 10 10 10h10c6 0 10 -4 10 -10v-535c0 -84 -26 -109 -107 -109z" />
      <glyph d="M136 0h-10c-6 0 -10 4 -10 10v430c0 4 -2 6 -6 6h-58c-6 0 -10 4 -10 10v8c0 6 4 10 10 10h58c4 0 6 2 6 6v61c0 116 29 139 122 139h21c6 0 10 -4 10 -10v-8c0 -6 -4 -10 -10 -10h-17c-82 0 -96 -16 -96 -101v-71c0 -4 2 -6 6 -6h107c6 0 10 -4 10 -10v-8
c0 -6 -4 -10 -10 -10h-107c-4 0 -6 -2 -6 -6v-430c0 -6 -4 -10 -10 -10zM426 620h-24c-6 0 -10 4 -10 10v40c0 6 4 10 10 10h24c6 0 10 -4 10 -10v-40c0 -6 -4 -10 -10 -10zM419 0h-10c-6 0 -10 4 -10 10v454c0 6 4 10 10 10h10c6 0 10 -4 10 -10v-454c0 -6 -4 -10 -10 -10z
" />
      <glyph d="M136 0h-10c-6 0 -10 4 -10 10v430c0 4 -2 6 -6 6h-58c-6 0 -10 4 -10 10v8c0 6 4 10 10 10h58c4 0 6 2 6 6v61c0 116 29 139 122 139h21c6 0 10 -4 10 -10v-8c0 -6 -4 -10 -10 -10h-17c-82 0 -96 -16 -96 -101v-71c0 -4 2 -6 6 -6h107c6 0 10 -4 10 -10v-8
c0 -6 -4 -10 -10 -10h-107c-4 0 -6 -2 -6 -6v-430c0 -6 -4 -10 -10 -10zM498 -2h-15c-62 0 -85 28 -85 99v573c0 6 4 10 10 10h10c6 0 10 -4 10 -10v-573c0 -54 15 -71 55 -71h15c6 0 10 -4 10 -10v-8c0 -6 -4 -10 -10 -10z" />
      <glyph d="M136 0h-10c-6 0 -10 4 -10 10v430c0 4 -2 6 -6 6h-58c-6 0 -10 4 -10 10v8c0 6 4 10 10 10h58c4 0 6 2 6 6v61c0 116 29 139 122 139h21c6 0 10 -4 10 -10v-8c0 -6 -4 -10 -10 -10h-17c-82 0 -96 -16 -96 -101v-71c0 -4 2 -6 6 -6h107c6 0 10 -4 10 -10v-8
c0 -6 -4 -10 -10 -10h-107c-4 0 -6 -2 -6 -6v-430c0 -6 -4 -10 -10 -10zM435 0h-10c-6 0 -10 4 -10 10v430c0 4 -2 6 -6 6h-58c-6 0 -10 4 -10 10v8c0 6 4 10 10 10h58c4 0 6 2 6 6v61c0 116 29 139 122 139h21c6 0 10 -4 10 -10v-8c0 -6 -4 -10 -10 -10h-17
c-82 0 -96 -16 -96 -101v-71c0 -4 2 -6 6 -6h107c6 0 10 -4 10 -10v-8c0 -6 -4 -10 -10 -10h-107c-4 0 -6 -2 -6 -6v-430c0 -6 -4 -10 -10 -10z" />
      <glyph d="M136 0h-10c-6 0 -10 4 -10 10v430c0 4 -2 6 -6 6h-58c-6 0 -10 4 -10 10v8c0 6 4 10 10 10h58c4 0 6 2 6 6v61c0 116 29 139 122 139h21c6 0 10 -4 10 -10v-8c0 -6 -4 -10 -10 -10h-17c-82 0 -96 -16 -96 -101v-71c0 -4 2 -6 6 -6h107c6 0 10 -4 10 -10v-8
c0 -6 -4 -10 -10 -10h-107c-4 0 -6 -2 -6 -6v-430c0 -6 -4 -10 -10 -10zM435 0h-10c-6 0 -10 4 -10 10v430c0 4 -2 6 -6 6h-58c-6 0 -10 4 -10 10v8c0 6 4 10 10 10h58c4 0 6 2 6 6v61c0 116 29 139 122 139h21c6 0 10 -4 10 -10v-8c0 -6 -4 -10 -10 -10h-17
c-82 0 -96 -16 -96 -101v-71c0 -4 2 -6 6 -6h107c6 0 10 -4 10 -10v-8c0 -6 -4 -10 -10 -10h-107c-4 0 -6 -2 -6 -6v-430c0 -6 -4 -10 -10 -10zM725 620h-24c-6 0 -10 4 -10 10v40c0 6 4 10 10 10h24c6 0 10 -4 10 -10v-40c0 -6 -4 -10 -10 -10zM718 0h-10
c-6 0 -10 4 -10 10v454c0 6 4 10 10 10h10c6 0 10 -4 10 -10v-454c0 -6 -4 -10 -10 -10z" />
      <glyph d="M136 0h-10c-6 0 -10 4 -10 10v430c0 4 -2 6 -6 6h-58c-6 0 -10 4 -10 10v8c0 6 4 10 10 10h58c4 0 6 2 6 6v61c0 116 29 139 122 139h21c6 0 10 -4 10 -10v-8c0 -6 -4 -10 -10 -10h-17c-82 0 -96 -16 -96 -101v-71c0 -4 2 -6 6 -6h107c6 0 10 -4 10 -10v-8
c0 -6 -4 -10 -10 -10h-107c-4 0 -6 -2 -6 -6v-430c0 -6 -4 -10 -10 -10zM435 0h-10c-6 0 -10 4 -10 10v430c0 4 -2 6 -6 6h-58c-6 0 -10 4 -10 10v8c0 6 4 10 10 10h58c4 0 6 2 6 6v61c0 116 29 139 122 139h21c6 0 10 -4 10 -10v-8c0 -6 -4 -10 -10 -10h-17
c-82 0 -96 -16 -96 -101v-71c0 -4 2 -6 6 -6h107c6 0 10 -4 10 -10v-8c0 -6 -4 -10 -10 -10h-107c-4 0 -6 -2 -6 -6v-430c0 -6 -4 -10 -10 -10zM797 -2h-15c-62 0 -85 28 -85 99v573c0 6 4 10 10 10h10c6 0 10 -4 10 -10v-573c0 -54 15 -71 55 -71h15c6 0 10 -4 10 -10v-8
c0 -6 -4 -10 -10 -10z" />
      <glyph d="M0 10v660c0 6 4 10 10 10h444c6 0 10 -4 10 -10v-660c0 -6 -4 -10 -10 -10h-444c-6 0 -10 4 -10 10zM30 34c0 -4 2 -6 6 -6h392c4 0 6 2 6 6v612c0 4 -2 6 -6 6h-392c-4 0 -6 -2 -6 -6v-612zM221 217c-6 0 -10 4 -10 10v25c0 32 6 50 24 72l31 37c37 44 43 62 43 94
c0 50 -35 80 -82 80c-43 0 -75 -23 -87 -77c-1 -6 -5 -9 -12 -8l-7 1c-6 1 -9 5 -8 11c10 58 54 99 114 99c68 0 110 -46 110 -106c0 -43 -13 -67 -44 -104l-31 -37c-21 -26 -23 -35 -23 -62v-25c0 -6 -4 -10 -10 -10h-8zM205 123v28c0 6 4 10 10 10h19c6 0 10 -4 10 -10
v-28c0 -6 -4 -10 -10 -10h-19c-6 0 -10 4 -10 10z" />
      <glyph />
      <glyph />
      <glyph />
      <glyph d="M121 170c-6 0 -10 4 -10 10l-2 490c0 6 4 10 10 10h12c6 0 10 -4 10 -10l-2 -490c0 -6 -4 -10 -10 -10h-8zM100 10v50c0 6 4 10 10 10h28c6 0 10 -4 10 -10v-50c0 -6 -4 -10 -10 -10h-28c-6 0 -10 4 -10 10z" />
      <glyph d="M200 536c-6 0 -10 4 -10 10v124c0 6 4 10 10 10h10c6 0 10 -4 10 -10v-124c0 -6 -4 -10 -10 -10h-10zM90 536c-6 0 -10 4 -10 10v124c0 6 4 10 10 10h10c6 0 10 -4 10 -10v-124c0 -6 -4 -10 -10 -10h-10z" />
      <glyph d="M99 10l29 213h-87c-6 0 -10 4 -10 10v7c0 6 4 10 10 10h90l27 197h-93c-6 0 -10 4 -10 10v7c0 6 4 10 10 10h97l27 196c1 6 4 10 11 10h10c7 0 10 -4 9 -10l-27 -196h167l27 196c1 6 4 10 11 10h10c7 0 10 -4 9 -10l-27 -196h92c6 0 10 -4 10 -10v-7c0 -6 -4 -10 -10 -10
h-96l-27 -197h99c6 0 10 -4 10 -10v-7c0 -6 -4 -10 -10 -10h-102l-29 -213c-1 -6 -4 -10 -11 -10h-10c-7 0 -10 4 -9 10l29 213h-167l-29 -213c-1 -6 -4 -10 -11 -10h-10c-7 0 -10 4 -9 10zM161 250h167l27 197h-167z" />
      <glyph d="M62 44c-4 3 -5 10 -1 14l7 8c4 5 9 4 14 1c42 -26 97 -47 165 -49v313c-121 18 -171 85 -171 176c0 109 69 176 171 182v52c0 6 4 10 10 10h8c6 0 10 -4 10 -10v-51c55 -3 105 -20 143 -42c5 -3 7 -8 3 -14l-5 -7c-4 -5 -9 -5 -14 -2c-46 23 -82 35 -127 37v-306
c128 -19 179 -80 179 -175c0 -106 -63 -181 -179 -190v-52c0 -6 -4 -10 -10 -10h-8c-6 0 -10 4 -10 10v51c-73 1 -143 27 -185 54zM247 360v301c-87 -5 -141 -64 -141 -151c0 -78 37 -134 141 -150zM275 18c90 7 149 64 149 160c0 83 -37 132 -149 149v-309z" />
      <glyph d="M180 0l393 680c4 7 7 10 14 10h10c6 0 9 -4 6 -10l-393 -680c-4 -7 -7 -10 -14 -10h-10c-6 0 -9 4 -6 10zM210 330c-52 0 -88 26 -102 71c-4 13 -8 31 -8 108s4 95 8 108c14 45 50 71 102 71s88 -26 102 -71c4 -13 8 -31 8 -108s-4 -95 -8 -108c-14 -45 -50 -71 -102 -71
zM210 356c37 0 63 16 74 50c5 15 8 27 8 103s-3 88 -8 103c-11 34 -37 50 -74 50s-63 -16 -74 -50c-5 -15 -8 -27 -8 -103s3 -88 8 -103c11 -34 37 -50 74 -50zM474 63c-4 13 -8 31 -8 108s4 95 8 108c14 45 50 71 102 71s88 -26 102 -71c4 -13 8 -31 8 -108s-4 -95 -8 -108
c-14 -45 -50 -71 -102 -71s-88 26 -102 71zM502 68c11 -34 37 -50 74 -50s63 16 74 50c5 15 8 27 8 103s-3 88 -8 103c-11 34 -37 50 -74 50s-63 -16 -74 -50c-5 -15 -8 -27 -8 -103s3 -88 8 -103z" />
      <glyph d="M83 157c0 82 56 150 145 223c-79 102 -100 138 -100 182c0 75 56 128 134 128s134 -53 134 -128c0 -57 -25 -103 -128 -187l172 -227l73 94c4 5 9 6 14 2l6 -4c6 -4 6 -9 2 -14l-78 -101l57 -75c13 -17 22 -22 37 -22h16c6 0 10 -4 10 -10v-8c0 -6 -4 -10 -10 -10h-17
c-29 0 -42 8 -61 33l-51 67c-62 -74 -118 -110 -190 -110c-101 0 -165 67 -165 167zM251 398c102 84 115 120 115 164c0 59 -43 100 -104 100s-104 -42 -104 -100c0 -36 18 -63 93 -164zM113 157c0 -83 50 -139 135 -139c66 0 113 34 173 105l-176 234
c-81 -66 -132 -125 -132 -200z" />
      <glyph d="M90 536c-6 0 -10 4 -10 10v124c0 6 4 10 10 10h10c6 0 10 -4 10 -10v-124c0 -6 -4 -10 -10 -10h-10z" />
      <glyph d="M188 -74c-65 120 -103 265 -103 402s38 282 103 402c3 6 7 10 13 10h9c6 0 10 -4 7 -10c-63 -120 -102 -265 -102 -402s39 -282 102 -402c3 -6 -1 -10 -7 -10h-9c-6 0 -10 4 -13 10z" />
      <glyph d="M52 -74c63 120 102 265 102 402s-39 282 -102 402c-3 6 1 10 7 10h9c6 0 10 -4 13 -10c65 -120 103 -265 103 -402s-38 -282 -103 -402c-3 -6 -7 -10 -13 -10h-9c-6 0 -10 4 -7 10z" />
      <glyph d="M175 406c-6 0 -10 4 -10 10v104l-90 -51c-6 -4 -11 -2 -14 3l-3 5c-3 5 -2 11 4 14l89 52l-89 52c-6 3 -7 9 -4 14l3 5c3 5 8 7 14 3l90 -52v105c0 6 4 10 10 10h6c6 0 10 -4 10 -10v-105l90 52c6 4 11 2 14 -3l3 -5c3 -5 2 -11 -4 -14l-90 -52l90 -52c6 -3 7 -9 4 -14
l-3 -5c-3 -5 -8 -7 -14 -3l-90 51v-104c0 -6 -4 -10 -10 -10h-6z" />
      <glyph d="M246 94v162c0 4 -2 6 -6 6h-161c-6 0 -10 4 -10 10v8c0 6 4 10 10 10h161c4 0 6 2 6 6v162c0 6 4 10 10 10h10c6 0 10 -4 10 -10v-162c0 -4 2 -6 6 -6h161c6 0 10 -4 10 -10v-8c0 -6 -4 -10 -10 -10h-161c-4 0 -6 -2 -6 -6v-162c0 -6 -4 -10 -10 -10h-10
c-6 0 -10 4 -10 10z" />
      <glyph d="M78 60c0 6 4 10 10 10h22c6 0 10 -4 10 -10v-58c0 -10 -1 -14 -4 -23l-21 -73c-2 -6 -5 -8 -10 -8s-7 3 -7 8v154z" />
      <glyph d="M60 253c-6 0 -10 4 -10 10v8c0 6 4 10 10 10h248c6 0 10 -4 10 -10v-8c0 -6 -4 -10 -10 -10h-248z" />
      <glyph d="M78 10v50c0 6 4 10 10 10h28c6 0 10 -4 10 -10v-50c0 -6 -4 -10 -10 -10h-28c-6 0 -10 4 -10 10z" />
      <glyph d="M74 0l221 680c2 6 6 10 13 10h10c6 0 9 -4 7 -10l-221 -680c-2 -6 -6 -10 -13 -10h-10c-6 0 -9 4 -7 10z" />
      <glyph d="M95 107c-7 22 -17 68 -17 233s10 211 17 233c25 77 82 117 166 117s141 -40 166 -117c7 -22 17 -68 17 -233s-10 -211 -17 -233c-25 -77 -82 -117 -166 -117s-141 40 -166 117zM124 114c21 -63 66 -96 137 -96s116 33 137 96c7 22 16 66 16 226s-9 204 -16 226
c-21 63 -66 96 -137 96s-116 -33 -137 -96c-7 -22 -16 -66 -16 -226s9 -204 16 -226z" />
      <glyph d="M272 10v629h-2l-131 -95c-5 -4 -11 -2 -11 6v12c0 7 2 11 7 15l133 97c5 4 8 6 14 6h10c6 0 10 -4 10 -10v-660c0 -6 -4 -10 -10 -10h-10c-6 0 -10 4 -10 10z" />
      <glyph d="M87 10v2c0 5 1 8 4 12l256 344c37 50 59 98 59 148c0 86 -59 146 -145 146c-84 0 -133 -53 -146 -134c-1 -5 -6 -9 -13 -7l-7 2c-6 2 -9 5 -8 11c12 84 73 156 174 156c103 0 175 -71 175 -174c0 -59 -26 -110 -70 -170l-236 -317v-1h296c6 0 10 -4 10 -10v-8
c0 -6 -4 -10 -10 -10h-329c-6 0 -10 4 -10 10z" />
      <glyph d="M75 128c-2 6 0 10 7 12l9 2c7 2 11 -1 13 -7c14 -52 55 -117 156 -117c95 0 154 68 154 162c0 91 -61 162 -155 162h-31c-6 0 -10 4 -10 10v8c0 6 4 10 10 10h31c84 0 142 61 142 147c0 85 -55 145 -145 145s-132 -57 -143 -112c-1 -6 -6 -9 -11 -8l-10 2
c-6 1 -9 6 -8 12c11 64 67 134 172 134s175 -73 175 -173c0 -92 -57 -139 -98 -159v-2c48 -20 111 -74 111 -176c0 -110 -73 -190 -184 -190c-117 0 -170 78 -185 138z" />
      <glyph d="M71 152c-6 0 -10 4 -10 10v6c0 4 1 7 2 10l222 494c3 6 6 8 13 8h12c7 0 8 -4 6 -9l-219 -490v-1h233c4 0 6 2 6 6v194c0 6 4 10 10 10h10c6 0 10 -4 10 -10v-194c0 -4 2 -6 6 -6h85c6 0 10 -4 10 -10v-8c0 -6 -4 -10 -10 -10h-85c-4 0 -6 -2 -6 -6v-136
c0 -6 -4 -10 -10 -10h-10c-6 0 -10 4 -10 10v136c0 4 -2 6 -6 6h-259z" />
      <glyph d="M101 136c-1 6 1 11 7 12l9 2c7 2 12 -2 13 -8c9 -71 59 -124 147 -124c62 0 111 30 131 89c8 24 12 60 12 110c0 52 -6 87 -14 112c-18 57 -62 87 -126 87c-73 0 -122 -46 -136 -99c-2 -6 -4 -10 -10 -10h-10c-6 0 -10 4 -10 10v353c0 6 4 10 10 10h303c6 0 10 -4 10 -10
v-8c0 -6 -4 -10 -10 -10h-277c-4 0 -6 -2 -6 -6v-276h1c18 37 67 74 135 74c76 0 131 -35 154 -105c9 -28 16 -67 16 -122c0 -54 -5 -90 -14 -117c-23 -71 -81 -110 -159 -110c-105 0 -166 64 -176 146z" />
      <glyph d="M70 193c0 54 20 105 44 152l165 327c3 6 6 8 13 8h12c7 0 8 -5 6 -9l-154 -306l2 -1c20 19 57 32 103 32c113 0 191 -82 191 -203s-78 -203 -191 -203s-191 82 -191 203zM100 193c0 -103 66 -175 161 -175s161 72 161 175s-66 175 -161 175s-161 -72 -161 -175z" />
      <glyph d="M165 11l252 638v3h-281c-4 0 -6 -2 -6 -6v-101c0 -6 -4 -10 -10 -10h-10c-6 0 -10 4 -10 10v125c0 6 4 10 10 10h329c6 0 10 -4 10 -10v-14c0 -4 -1 -7 -2 -10l-252 -637c-3 -7 -5 -9 -13 -9h-12c-6 0 -8 4 -5 11z" />
      <glyph d="M69 181c0 86 47 150 118 177v2c-61 27 -99 83 -99 157c0 101 72 173 173 173s173 -72 173 -173c0 -74 -38 -130 -99 -157v-2c71 -27 118 -91 118 -177c0 -112 -80 -191 -192 -191s-192 79 -192 191zM261 372c87 0 143 62 143 145c0 85 -58 145 -143 145
s-143 -60 -143 -145c0 -83 56 -145 143 -145zM99 181c0 -93 67 -163 162 -163s162 70 162 163c0 92 -65 163 -162 163s-162 -71 -162 -163z" />
      <glyph d="M212 9l154 306l-2 1c-20 -19 -57 -32 -103 -32c-113 0 -191 82 -191 203s78 203 191 203s191 -82 191 -203c0 -54 -20 -105 -44 -152l-165 -327c-3 -6 -6 -8 -13 -8h-12c-7 0 -8 5 -6 9zM261 312c95 0 161 72 161 175s-66 175 -161 175s-161 -72 -161 -175
s66 -175 161 -175z" />
      <glyph d="M92 404c-6 0 -10 4 -10 10v50c0 6 4 10 10 10h28c6 0 10 -4 10 -10v-50c0 -6 -4 -10 -10 -10h-28zM82 10v50c0 6 4 10 10 10h28c6 0 10 -4 10 -10v-50c0 -6 -4 -10 -10 -10h-28c-6 0 -10 4 -10 10z" />
      <glyph d="M92 404c-6 0 -10 4 -10 10v50c0 6 4 10 10 10h28c6 0 10 -4 10 -10v-50c0 -6 -4 -10 -10 -10h-28zM85 60c0 6 4 10 10 10h22c6 0 10 -4 10 -10v-58c0 -10 -1 -14 -4 -23l-21 -73c-2 -6 -5 -8 -10 -8s-7 3 -7 8v154z" />
      <glyph d="M79 261c-8 3 -10 5 -10 12v6c0 7 2 9 10 12l364 147c6 2 10 -1 10 -7v-8c0 -7 -3 -10 -10 -13l-329 -133v-2l329 -133c7 -3 10 -6 10 -13v-8c0 -6 -4 -9 -10 -7z" />
      <glyph d="M79 358c-6 0 -10 4 -10 10v8c0 6 4 10 10 10h364c6 0 10 -4 10 -10v-8c0 -6 -4 -10 -10 -10h-364zM79 166c-6 0 -10 4 -10 10v8c0 6 4 10 10 10h364c6 0 10 -4 10 -10v-8c0 -6 -4 -10 -10 -10h-364z" />
      <glyph d="M79 114c-6 -2 -10 1 -10 7v8c0 7 3 10 10 13l329 133v2l-329 133c-7 3 -10 6 -10 13v8c0 6 4 9 10 7l364 -147c8 -3 10 -5 10 -12v-6c0 -7 -2 -9 -10 -12z" />
      <glyph d="M203 176v38c0 42 7 69 35 104l45 56c61 75 72 106 72 155c0 87 -60 133 -135 133c-74 0 -125 -46 -140 -128c-1 -6 -5 -9 -12 -8l-9 2c-6 1 -9 5 -8 11c13 86 75 151 169 151c100 0 165 -68 165 -161c0 -59 -19 -96 -69 -158l-45 -56c-33 -41 -38 -59 -38 -101v-38
c0 -6 -4 -10 -10 -10h-10c-6 0 -10 4 -10 10zM194 10v50c0 6 4 10 10 10h28c6 0 10 -4 10 -10v-50c0 -6 -4 -10 -10 -10h-28c-6 0 -10 4 -10 10z" />
      <glyph d="M51 267c0 233 162 393 392 393s392 -160 392 -393c0 -151 -65 -210 -148 -210c-55 0 -100 33 -116 85h-1c-25 -58 -77 -85 -140 -85c-68 0 -117 32 -139 100c-8 26 -13 56 -13 104s5 78 13 104c22 68 71 100 139 100c69 0 107 -27 128 -62h2v43c0 6 4 10 10 10h10
c6 0 10 -4 10 -10v-244c0 -80 49 -117 99 -117c61 0 116 44 116 182c0 218 -147 365 -362 365s-362 -147 -362 -365c0 -220 147 -367 362 -367c102 0 170 21 220 49c5 3 10 1 13 -4l4 -7c3 -5 1 -10 -4 -13c-56 -32 -128 -53 -233 -53c-230 0 -392 160 -392 395zM320 164
c18 -55 56 -79 114 -79s96 24 114 79c8 24 12 54 12 97s-4 73 -12 97c-18 55 -56 79 -114 79s-96 -24 -114 -79c-8 -24 -12 -54 -12 -97s4 -73 12 -97z" />
      <glyph d="M37 10l240 660c2 6 5 10 11 10h13c6 0 9 -4 11 -10l238 -660c2 -6 -1 -10 -7 -10h-14c-6 0 -10 2 -13 10l-66 185h-313l-67 -185c-3 -8 -7 -10 -13 -10h-13c-6 0 -9 4 -7 10zM147 224h292l-144 403h-2z" />
      <glyph d="M102 10v660c0 6 4 10 10 10h218c122 0 191 -67 191 -174c0 -85 -45 -140 -116 -157v-2c54 -7 127 -59 127 -167s-71 -180 -198 -180h-222c-6 0 -10 4 -10 10zM139 361h191c105 0 160 60 160 145c0 90 -55 145 -160 145h-191c-4 0 -6 -2 -6 -6v-278c0 -4 2 -6 6 -6z
M133 35c0 -4 2 -6 6 -6h195c111 0 167 59 167 151s-56 152 -167 152h-195c-4 0 -6 -2 -6 -6v-291z" />
      <glyph d="M88 135c-10 30 -18 81 -18 205s8 175 18 205c32 98 102 145 205 145c86 0 155 -37 194 -116c3 -5 3 -10 -2 -13l-10 -5c-5 -3 -10 -1 -13 4c-35 64 -88 101 -169 101c-91 0 -147 -40 -175 -124c-9 -27 -17 -76 -17 -197s8 -170 17 -197c28 -84 84 -124 175 -124
c81 0 134 37 169 101c3 5 8 7 13 4l10 -5c5 -3 5 -8 2 -13c-39 -79 -108 -116 -194 -116c-103 0 -173 47 -205 145z" />
      <glyph d="M102 10v660c0 6 4 10 10 10h200c111 0 184 -42 213 -132c14 -43 19 -81 19 -208s-5 -165 -19 -208c-29 -90 -102 -132 -213 -132h-200c-6 0 -10 4 -10 10zM133 35c0 -4 2 -6 6 -6h173c94 0 158 33 183 110c13 40 18 78 18 201s-5 161 -18 201c-25 77 -89 110 -183 110
h-173c-4 0 -6 -2 -6 -6v-610z" />
      <glyph d="M102 10v660c0 6 4 10 10 10h374c6 0 10 -4 10 -10v-9c0 -6 -4 -10 -10 -10h-347c-4 0 -6 -2 -6 -6v-279c0 -4 2 -6 6 -6h300c6 0 10 -4 10 -10v-9c0 -6 -4 -10 -10 -10h-300c-4 0 -6 -2 -6 -6v-290c0 -4 2 -6 6 -6h347c6 0 10 -4 10 -10v-9c0 -6 -4 -10 -10 -10h-374
c-6 0 -10 4 -10 10z" />
      <glyph d="M102 10v660c0 6 4 10 10 10h374c6 0 10 -4 10 -10v-9c0 -6 -4 -10 -10 -10h-347c-4 0 -6 -2 -6 -6v-286c0 -4 2 -6 6 -6h300c6 0 10 -4 10 -10v-9c0 -6 -4 -10 -10 -10h-300c-4 0 -6 -2 -6 -6v-308c0 -6 -4 -10 -10 -10h-11c-6 0 -10 4 -10 10z" />
      <glyph d="M89 138c-10 30 -19 78 -19 202s9 172 19 202c32 98 106 148 212 148c104 0 170 -50 202 -115c3 -6 4 -12 -2 -15l-9 -5c-4 -2 -10 -2 -13 3c-36 66 -91 103 -178 103c-91 0 -154 -43 -182 -127c-9 -27 -18 -73 -18 -194s9 -167 18 -194c28 -84 91 -127 182 -127
s154 43 182 127c9 27 18 73 18 151c0 4 -2 6 -6 6h-173c-6 0 -10 4 -10 10v9c0 6 4 10 10 10h200c6 0 10 -4 10 -10v-32c0 -74 -9 -122 -19 -152c-32 -98 -106 -148 -212 -148s-180 50 -212 148z" />
      <glyph d="M102 10v660c0 6 4 10 10 10h11c6 0 10 -4 10 -10v-304c0 -4 2 -6 6 -6h369c4 0 6 2 6 6v304c0 6 4 10 10 10h11c6 0 10 -4 10 -10v-660c0 -6 -4 -10 -10 -10h-11c-6 0 -10 4 -10 10v315c0 4 -2 6 -6 6h-369c-4 0 -6 -2 -6 -6v-315c0 -6 -4 -10 -10 -10h-11
c-6 0 -10 4 -10 10z" />
      <glyph d="M102 10v660c0 6 4 10 10 10h11c6 0 10 -4 10 -10v-660c0 -6 -4 -10 -10 -10h-11c-6 0 -10 4 -10 10z" />
      <glyph d="M47 34c-5 3 -6 9 -3 14l8 9c4 4 10 4 15 1c27 -20 69 -39 114 -39c92 0 153 47 153 173v478c0 6 4 10 10 10h11c6 0 10 -4 10 -10v-479c0 -141 -73 -201 -184 -201c-52 0 -101 19 -134 44z" />
      <glyph d="M102 10v660c0 6 4 10 10 10h11c6 0 10 -4 10 -10v-421l353 421c6 7 10 10 17 10h18c6 0 9 -5 5 -10l-217 -258l231 -402c3 -5 1 -10 -5 -10h-17c-6 0 -10 3 -14 10l-217 377l-154 -184v-193c0 -6 -4 -10 -10 -10h-11c-6 0 -10 4 -10 10z" />
      <glyph d="M102 10v660c0 6 4 10 10 10h11c6 0 10 -4 10 -10v-635c0 -4 2 -6 6 -6h347c6 0 10 -4 10 -10v-9c0 -6 -4 -10 -10 -10h-374c-6 0 -10 4 -10 10z" />
      <glyph d="M102 10v660c0 6 4 10 10 10h14c5 0 10 -3 13 -10l237 -522h3l236 522c3 7 8 10 13 10h14c6 0 10 -4 10 -10v-660c0 -6 -4 -10 -10 -10h-11c-6 0 -10 4 -10 10v590h-3l-222 -486c-4 -8 -7 -10 -17 -10h-4c-10 0 -13 2 -17 10l-222 486h-3v-590c0 -6 -4 -10 -10 -10h-11
c-6 0 -10 4 -10 10z" />
      <glyph d="M102 10v660c0 6 4 10 10 10h9c6 0 12 -1 17 -10l374 -603h3v603c0 6 4 10 10 10h11c6 0 10 -4 10 -10v-660c0 -6 -4 -10 -10 -10h-9c-6 0 -12 1 -17 10l-374 603h-3v-603c0 -6 -4 -10 -10 -10h-11c-6 0 -10 4 -10 10z" />
      <glyph d="M301 -10c-107 0 -179 50 -211 148c-10 30 -20 78 -20 202s10 172 20 202c32 98 104 148 211 148s179 -50 211 -148c10 -30 20 -78 20 -202s-10 -172 -20 -202c-32 -98 -104 -148 -211 -148zM301 19c92 0 153 43 181 127c9 27 19 73 19 194s-10 167 -19 194
c-28 84 -89 127 -181 127s-153 -43 -181 -127c-9 -27 -19 -73 -19 -194s10 -167 19 -194c28 -84 89 -127 181 -127z" />
      <glyph d="M123 0h-11c-6 0 -10 4 -10 10v660c0 6 4 10 10 10h215c129 0 203 -69 203 -184s-74 -184 -203 -184h-188c-4 0 -6 -2 -6 -6v-296c0 -6 -4 -10 -10 -10zM327 341c113 0 172 56 172 155s-59 155 -172 155h-188c-4 0 -6 -2 -6 -6v-298c0 -4 2 -6 6 -6h188z" />
      <glyph d="M542 -23l-7 -6c-5 -4 -10 -4 -14 1l-65 73c-38 -37 -90 -55 -155 -55c-107 0 -179 50 -211 148c-10 30 -20 78 -20 202s10 172 20 202c32 98 104 148 211 148s179 -50 211 -148c10 -30 20 -78 20 -202s-10 -172 -20 -202c-9 -28 -22 -52 -37 -72l67 -75c4 -5 4 -10 0 -14
zM301 19c57 0 102 16 134 49l-84 94c-4 5 -4 10 0 14l7 6c5 4 10 3 14 -1l82 -92c11 16 21 35 28 57c9 27 19 73 19 194s-10 167 -19 194c-28 84 -89 127 -181 127s-153 -43 -181 -127c-9 -27 -19 -73 -19 -194s10 -167 19 -194c28 -84 89 -127 181 -127z" />
      <glyph d="M530 0h-17c-6 0 -9 2 -12 9l-149 310c-9 -1 -18 -1 -27 -1h-186c-4 0 -6 -2 -6 -6v-302c0 -6 -4 -10 -10 -10h-11c-6 0 -10 4 -10 10v660c0 6 4 10 10 10h213c129 0 203 -66 203 -181c0 -96 -52 -158 -145 -176l152 -313c3 -5 1 -10 -5 -10zM325 347
c113 0 172 53 172 152s-59 152 -172 152h-186c-4 0 -6 -2 -6 -6v-292c0 -4 2 -6 6 -6h186z" />
      <glyph d="M291 -10c-85 0 -171 37 -214 74c-4 4 -5 10 -1 14l8 9c4 5 9 5 14 1c46 -36 119 -69 199 -69c121 0 195 62 195 159c0 76 -39 132 -177 150l-30 4c-135 18 -192 81 -192 173c0 116 81 185 206 185c71 0 139 -22 183 -52c5 -3 6 -9 2 -14l-7 -9c-4 -5 -9 -5 -14 -2
c-54 32 -108 48 -166 48c-110 0 -173 -62 -173 -153c0 -80 47 -132 178 -149l30 -4c135 -18 191 -79 191 -174c0 -113 -79 -191 -232 -191z" />
      <glyph d="M262 0h-11c-6 0 -10 4 -10 10v635c0 4 -2 6 -6 6h-203c-6 0 -10 4 -10 10v9c0 6 4 10 10 10h449c6 0 10 -4 10 -10v-9c0 -6 -4 -10 -10 -10h-203c-4 0 -6 -2 -6 -6v-635c0 -6 -4 -10 -10 -10z" />
      <glyph d="M316 -10c-143 0 -222 78 -222 243v437c0 6 4 10 10 10h11c6 0 10 -4 10 -10v-438c0 -143 68 -213 191 -213c124 0 191 70 191 213v438c0 6 4 10 10 10h11c6 0 10 -4 10 -10v-437c0 -163 -79 -243 -222 -243z" />
      <glyph d="M286 0h-13c-6 0 -9 4 -11 10l-230 654c-4 11 0 16 7 16h9c9 0 12 -2 15 -10l217 -622h1l212 622c3 8 6 10 15 10h10c7 0 11 -5 7 -16l-228 -654c-2 -6 -5 -10 -11 -10z" />
      <glyph d="M604 0h-14c-6 0 -9 3 -11 10l-171 604h-2l-172 -604c-2 -7 -5 -10 -11 -10h-14c-6 0 -10 4 -11 10l-159 659c-2 7 1 11 8 11h11c9 0 12 -2 14 -10l145 -611h2l169 611c2 7 5 10 12 10h13c7 0 10 -3 12 -10l171 -611h2l143 611c2 8 5 10 14 10h11c7 0 10 -4 8 -11
l-159 -659c-1 -6 -5 -10 -11 -10z" />
      <glyph d="M488 0h-18c-6 0 -9 3 -12 8l-191 322h-1l-192 -322c-3 -5 -6 -8 -12 -8h-17c-6 0 -8 5 -5 10l209 349l-186 311c-3 5 -1 10 5 10h18c6 0 9 -3 12 -8l168 -284h1l169 284c3 5 6 8 12 8h17c6 0 8 -5 5 -10l-186 -311l209 -349c3 -5 1 -10 -5 -10z" />
      <glyph d="M259 0h-11c-6 0 -10 4 -10 10v269l-207 389c-3 6 0 12 7 12h12c8 0 11 -2 15 -10l189 -352h2l185 352c4 8 7 10 15 10h12c7 0 10 -6 7 -12l-206 -389v-269c0 -6 -4 -10 -10 -10z" />
      <glyph d="M475 0h-408c-6 0 -10 4 -10 10v9c0 5 2 9 6 15l383 616v1h-365c-6 0 -10 4 -10 10v9c0 6 4 10 10 10h394c6 0 10 -4 10 -10v-9c0 -5 -1 -8 -5 -14l-384 -617v-1h379c6 0 10 -4 10 -10v-9c0 -6 -4 -10 -10 -10z" />
      <glyph d="M224 -84h-98c-6 0 -10 4 -10 10v804c0 6 4 10 10 10h98c6 0 10 -4 10 -10v-8c0 -6 -4 -10 -10 -10h-72c-4 0 -6 -2 -6 -6v-756c0 -4 2 -6 6 -6h72c6 0 10 -4 10 -10v-8c0 -6 -4 -10 -10 -10z" />
      <glyph d="M318 -10h-10c-7 0 -11 4 -13 10l-221 680c-2 6 1 10 7 10h10c7 0 11 -4 13 -10l221 -680c2 -6 -1 -10 -7 -10z" />
      <glyph d="M158 -84h-98c-6 0 -10 4 -10 10v8c0 6 4 10 10 10h72c4 0 6 2 6 6v756c0 4 -2 6 -6 6h-72c-6 0 -10 4 -10 10v8c0 6 4 10 10 10h98c6 0 10 -4 10 -10v-804c0 -6 -4 -10 -10 -10z" />
      <glyph d="M444 292h-9c-6 0 -10 3 -13 10l-160 342h-2l-160 -342c-3 -7 -7 -10 -13 -10h-9c-6 0 -10 4 -7 10l172 368c3 6 7 10 14 10h8c7 0 11 -4 14 -10l172 -368c3 -6 -1 -10 -7 -10z" />
      <glyph d="M445 -116h-445v28h445v-28z" />
      <glyph d="M262 560h-7c-8 0 -11 2 -17 10l-85 120c-4 5 -1 10 5 10h15c8 0 12 -3 16 -10l78 -120c4 -6 1 -10 -5 -10z" />
      <glyph d="M405 0h-10c-6 0 -10 4 -10 10v57h-1c-17 -43 -70 -77 -153 -77c-99 0 -159 49 -159 138c0 90 62 136 176 136h131c4 0 6 2 6 6v61c0 90 -28 125 -132 125c-64 0 -99 -14 -124 -38c-5 -5 -10 -5 -14 -2l-7 6c-6 5 -5 10 -1 14c29 30 77 48 146 48c114 0 162 -36 162 -153
v-321c0 -6 -4 -10 -10 -10zM235 18c88 0 150 51 150 122v90c0 4 -2 6 -6 6h-129c-104 0 -148 -36 -148 -108c0 -70 48 -110 133 -110z" />
      <glyph d="M282 -10c-85 0 -128 38 -151 89h-1v-69c0 -6 -4 -10 -10 -10h-10c-6 0 -10 4 -10 10v660c0 6 4 10 10 10h10c6 0 10 -4 10 -10v-275h1c23 51 66 89 151 89s137 -38 161 -113c13 -40 17 -86 17 -134s-4 -94 -17 -134c-24 -75 -76 -113 -161 -113zM280 18
c69 0 115 34 135 95c11 34 15 82 15 124s-4 90 -15 124c-20 61 -66 95 -135 95c-66 0 -116 -31 -137 -95c-9 -28 -13 -68 -13 -124s4 -96 13 -124c21 -64 71 -95 137 -95z" />
      <glyph d="M249 -10c-83 0 -144 45 -168 120c-9 29 -16 68 -16 127s7 98 16 127c24 75 85 120 168 120c75 0 128 -35 157 -96c3 -6 1 -11 -5 -14l-7 -3c-5 -2 -10 -1 -13 4c-28 56 -69 81 -132 81c-69 0 -118 -36 -139 -103c-9 -27 -15 -62 -15 -116s6 -89 15 -116
c21 -67 70 -103 139 -103c63 0 104 25 132 81c3 5 8 6 13 4l7 -3c6 -3 8 -8 5 -14c-29 -61 -82 -96 -157 -96z" />
      <glyph d="M415 0h-10c-6 0 -10 4 -10 10v69h-1c-23 -51 -66 -89 -151 -89s-137 38 -161 113c-13 40 -17 86 -17 134s4 94 17 134c24 75 76 113 161 113s128 -38 151 -89h1v275c0 6 4 10 10 10h10c6 0 10 -4 10 -10v-660c0 -6 -4 -10 -10 -10zM245 18c66 0 116 31 137 95
c9 28 13 68 13 124s-4 96 -13 124c-21 64 -71 95 -137 95c-69 0 -115 -34 -135 -95c-11 -34 -15 -82 -15 -124s4 -90 15 -124c20 -61 66 -95 135 -95z" />
      <glyph d="M253 -10c-88 0 -148 41 -174 122c-9 28 -14 60 -14 126c0 65 5 99 14 126c26 79 87 120 168 120s142 -40 168 -120c9 -27 14 -58 14 -118c0 -6 -4 -10 -11 -10h-317c-4 0 -6 -3 -6 -7c0 -53 4 -81 12 -107c24 -72 76 -104 146 -104c66 0 114 29 143 69c4 5 9 6 14 2l6 -5
c5 -4 5 -9 1 -14c-33 -47 -89 -80 -164 -80zM101 264h292c4 0 6 2 6 6c0 34 -4 60 -11 83c-22 69 -72 103 -141 103s-119 -34 -141 -103c-7 -23 -11 -49 -11 -83c0 -4 2 -6 6 -6z" />
      <glyph d="M136 0h-10c-6 0 -10 4 -10 10v430c0 4 -2 6 -6 6h-58c-6 0 -10 4 -10 10v8c0 6 4 10 10 10h58c4 0 6 2 6 6v61c0 116 29 139 122 139h21c6 0 10 -4 10 -10v-8c0 -6 -4 -10 -10 -10h-17c-82 0 -96 -16 -96 -101v-71c0 -4 2 -6 6 -6h107c6 0 10 -4 10 -10v-8
c0 -6 -4 -10 -10 -10h-107c-4 0 -6 -2 -6 -6v-430c0 -6 -4 -10 -10 -10z" />
      <glyph d="M239 -190c-69 0 -127 31 -150 68c-3 5 -3 11 2 14l8 5c5 3 10 2 14 -3c27 -35 69 -56 126 -56c90 0 148 44 148 161v80h-1c-23 -53 -65 -89 -148 -89c-80 0 -134 42 -157 113c-11 33 -16 75 -16 134s5 101 16 134c23 71 77 113 157 113c83 0 125 -36 148 -89h1v69
c0 6 4 10 10 10h10c6 0 10 -4 10 -10v-465c0 -131 -71 -189 -178 -189zM241 18c59 0 110 25 133 95c10 29 13 65 13 124s-3 95 -13 124c-23 70 -74 95 -133 95c-65 0 -110 -32 -131 -94c-10 -30 -15 -70 -15 -125s5 -95 15 -125c21 -62 66 -94 131 -94z" />
      <glyph d="M434 0h-10c-6 0 -10 4 -10 10v284c0 112 -46 162 -139 162c-79 0 -145 -54 -145 -147v-299c0 -6 -4 -10 -10 -10h-10c-6 0 -10 4 -10 10v660c0 6 4 10 10 10h10c6 0 10 -4 10 -10v-273h1c24 55 78 87 146 87c107 0 167 -61 167 -183v-291c0 -6 -4 -10 -10 -10z" />
      <glyph d="M127 620h-24c-6 0 -10 4 -10 10v40c0 6 4 10 10 10h24c6 0 10 -4 10 -10v-40c0 -6 -4 -10 -10 -10zM120 0h-10c-6 0 -10 4 -10 10v454c0 6 4 10 10 10h10c6 0 10 -4 10 -10v-454c0 -6 -4 -10 -10 -10z" />
      <glyph d="M127 620h-24c-6 0 -10 4 -10 10v40c0 6 4 10 10 10h24c6 0 10 -4 10 -10v-40c0 -6 -4 -10 -10 -10zM23 -180h-4c-6 0 -10 4 -10 10v8c0 6 4 10 10 10h4c60 0 77 14 77 81v535c0 6 4 10 10 10h10c6 0 10 -4 10 -10v-535c0 -84 -26 -109 -107 -109z" />
      <glyph d="M440 0h-13c-7 0 -10 2 -15 10l-165 269l-117 -140v-129c0 -6 -4 -10 -10 -10h-10c-6 0 -10 4 -10 10v660c0 6 4 10 10 10h10c6 0 10 -4 10 -10v-488l237 283c6 7 9 9 16 9h15c6 0 9 -5 5 -10l-136 -162l179 -292c3 -5 0 -10 -6 -10z" />
      <glyph d="M199 -2h-15c-62 0 -85 28 -85 99v573c0 6 4 10 10 10h10c6 0 10 -4 10 -10v-573c0 -54 15 -71 55 -71h15c6 0 10 -4 10 -10v-8c0 -6 -4 -10 -10 -10z" />
      <glyph d="M748 0h-10c-6 0 -10 4 -10 10v284c0 112 -46 162 -139 162c-79 0 -145 -54 -145 -147v-299c0 -6 -4 -10 -10 -10h-10c-6 0 -10 4 -10 10v284c0 112 -46 162 -139 162c-79 0 -145 -54 -145 -147v-299c0 -6 -4 -10 -10 -10h-10c-6 0 -10 4 -10 10v454c0 6 4 10 10 10h10
c6 0 10 -4 10 -10v-67h1c24 55 78 87 146 87c81 0 134 -35 156 -102h1c24 63 75 102 157 102c107 0 167 -61 167 -183v-291c0 -6 -4 -10 -10 -10z" />
      <glyph d="M434 0h-10c-6 0 -10 4 -10 10v284c0 112 -46 162 -139 162c-79 0 -145 -54 -145 -147v-299c0 -6 -4 -10 -10 -10h-10c-6 0 -10 4 -10 10v454c0 6 4 10 10 10h10c6 0 10 -4 10 -10v-67h1c24 55 78 87 146 87c107 0 167 -61 167 -183v-291c0 -6 -4 -10 -10 -10z" />
      <glyph d="M251 -10c-84 0 -145 44 -170 120c-10 31 -16 67 -16 127s6 96 16 127c25 76 86 120 170 120s145 -44 170 -120c10 -31 16 -67 16 -127s-6 -96 -16 -127c-25 -76 -86 -120 -170 -120zM251 18c69 0 121 37 142 102c9 28 14 61 14 117s-5 89 -14 117
c-21 65 -73 102 -142 102s-121 -37 -142 -102c-9 -28 -14 -61 -14 -117s5 -89 14 -117c21 -65 73 -102 142 -102z" />
      <glyph d="M120 -180h-10c-6 0 -10 4 -10 10v634c0 6 4 10 10 10h10c6 0 10 -4 10 -10v-69h1c23 51 66 89 151 89s137 -38 161 -113c13 -40 17 -86 17 -134s-4 -94 -17 -134c-24 -75 -76 -113 -161 -113s-128 38 -151 89h-1v-249c0 -6 -4 -10 -10 -10zM280 18c69 0 115 34 135 95
c11 34 15 82 15 124s-4 90 -15 124c-20 61 -66 95 -135 95c-66 0 -116 -31 -137 -95c-9 -28 -13 -68 -13 -124s4 -96 13 -124c21 -64 71 -95 137 -95z" />
      <glyph d="M415 -180h-10c-6 0 -10 4 -10 10v249h-1c-23 -51 -66 -89 -151 -89s-137 38 -161 113c-13 40 -17 86 -17 134s4 94 17 134c24 75 76 113 161 113s128 -38 151 -89h1v69c0 6 4 10 10 10h10c6 0 10 -4 10 -10v-634c0 -6 -4 -10 -10 -10zM245 18c66 0 116 31 137 95
c9 28 13 68 13 124s-4 96 -13 124c-21 64 -71 95 -137 95c-69 0 -115 -34 -135 -95c-11 -34 -15 -82 -15 -124s4 -90 15 -124c20 -61 66 -95 135 -95z" />
      <glyph d="M120 0h-10c-6 0 -10 4 -10 10v454c0 6 4 10 10 10h10c6 0 10 -4 10 -10v-71h1c15 53 59 91 129 91c37 0 71 -12 94 -29c4 -3 5 -8 2 -13l-6 -8c-4 -5 -10 -5 -15 -2c-23 14 -48 24 -79 24c-93 0 -126 -87 -126 -181v-265c0 -6 -4 -10 -10 -10z" />
      <glyph d="M239 -10c-82 0 -143 35 -178 63c-4 4 -4 10 0 14l7 7c4 4 10 3 14 0c38 -29 90 -56 162 -56c93 0 139 44 139 109c0 58 -23 89 -122 100l-47 5c-85 9 -134 48 -134 119c0 85 61 133 160 133c60 0 112 -19 148 -40c5 -3 6 -9 2 -14l-4 -6c-3 -5 -9 -6 -14 -3
c-32 16 -83 35 -135 35c-83 0 -127 -38 -127 -102c0 -57 34 -86 123 -95l47 -5c89 -9 133 -51 133 -122c0 -88 -61 -142 -174 -142z" />
      <glyph d="M252 -2h-17c-86 0 -119 29 -119 124v318c0 4 -2 6 -6 6h-58c-6 0 -10 4 -10 10v8c0 6 4 10 10 10h58c4 0 6 2 6 6v140c0 6 4 10 10 10h10c6 0 10 -4 10 -10v-140c0 -4 2 -6 6 -6h100c6 0 10 -4 10 -10v-8c0 -6 -4 -10 -10 -10h-100c-4 0 -6 -2 -6 -6v-316
c0 -79 24 -98 90 -98h16c6 0 10 -4 10 -10v-8c0 -6 -4 -10 -10 -10z" />
      <glyph d="M421 0h-10c-6 0 -10 4 -10 10v67h-1c-23 -55 -78 -87 -144 -87c-107 0 -165 61 -165 183v291c0 6 4 10 10 10h10c6 0 10 -4 10 -10v-284c0 -112 44 -162 137 -162c78 0 143 54 143 147v299c0 6 4 10 10 10h10c6 0 10 -4 10 -10v-454c0 -6 -4 -10 -10 -10z" />
      <glyph d="M236 0h-12c-6 0 -9 4 -11 10l-174 454c-2 6 0 10 7 10h12c7 0 10 -2 13 -10l160 -416h1l157 416c3 8 6 10 13 10h12c7 0 9 -4 7 -10l-174 -454c-2 -6 -5 -10 -11 -10z" />
      <glyph d="M523 0h-8c-7 0 -10 3 -12 10l-138 417h-1l-139 -417c-2 -7 -5 -10 -12 -10h-8c-7 0 -10 3 -12 10l-148 454c-2 6 0 10 7 10h10c7 0 10 -2 13 -10l135 -412h1l136 412c2 7 5 10 12 10h10c7 0 10 -3 12 -10l139 -412h1l132 412c3 8 6 10 13 10h10c7 0 9 -4 7 -10l-148 -454
c-2 -7 -5 -10 -12 -10z" />
      <glyph d="M400 0h-15c-6 0 -9 1 -13 7l-147 218h-1l-148 -218c-4 -6 -7 -7 -13 -7h-14c-6 0 -8 5 -5 10l164 240l-146 214c-3 5 -1 10 5 10h14c6 0 9 -1 13 -7l130 -192h1l131 192c4 6 7 7 13 7h13c6 0 8 -5 5 -10l-146 -214l164 -240c3 -5 1 -10 -5 -10z" />
      <glyph d="M95 -180h-16c-6 0 -10 4 -10 10v8c0 6 4 10 10 10h18c42 0 65 17 98 105l20 53l-176 458c-2 6 0 10 7 10h12c7 0 10 -2 13 -10l160 -416h1l157 416c3 8 6 10 13 10h12c7 0 9 -4 7 -10l-199 -519c-41 -107 -73 -125 -127 -125z" />
      <glyph d="M392 0h-322c-6 0 -10 4 -10 10v8c0 5 2 9 6 15l299 412v1h-282c-6 0 -10 4 -10 10v8c0 6 4 10 10 10h309c6 0 10 -4 10 -10v-8c0 -5 -2 -9 -6 -15l-299 -412v-1h295c6 0 10 -4 10 -10v-8c0 -6 -4 -10 -10 -10z" />
      <glyph d="M246 -84h-23c-58 0 -82 25 -82 97v216c0 66 -22 84 -51 87c-6 1 -10 4 -10 10v8c0 6 4 9 10 10c29 3 51 21 51 87v212c0 72 24 97 82 97h23c6 0 10 -4 10 -10v-8c0 -6 -4 -10 -10 -10h-24c-35 0 -51 -17 -51 -63v-207c0 -77 -13 -98 -43 -111v-2c30 -13 43 -34 43 -111
v-211c0 -46 16 -63 51 -63h24c6 0 10 -4 10 -10v-8c0 -6 -4 -10 -10 -10z" />
      <glyph d="M110 -84h-10c-6 0 -10 4 -10 10v804c0 6 4 10 10 10h10c6 0 10 -4 10 -10v-804c0 -6 -4 -10 -10 -10z" />
      <glyph d="M83 -84h-23c-6 0 -10 4 -10 10v8c0 6 4 10 10 10h24c35 0 51 17 51 63v211c0 77 13 98 43 111v2c-30 13 -43 34 -43 111v207c0 46 -16 63 -51 63h-24c-6 0 -10 4 -10 10v8c0 6 4 10 10 10h23c58 0 82 -25 82 -97v-212c0 -66 22 -84 51 -87c6 -1 10 -4 10 -10v-8
c0 -6 -4 -9 -10 -10c-29 -3 -51 -21 -51 -87v-216c0 -72 -24 -97 -82 -97z" />
      <glyph d="M347 224c-42 0 -69 21 -95 41c-23 17 -46 34 -78 34c-35 0 -59 -16 -86 -59c-3 -5 -8 -6 -14 -2l-5 3c-6 4 -7 7 -3 14c24 44 63 71 109 71c42 0 69 -21 95 -41c23 -17 46 -34 78 -34c35 0 59 16 86 59c3 5 8 6 14 2l5 -3c6 -4 7 -7 3 -14c-24 -44 -63 -71 -109 -71z" />
      <glyph />
      <glyph d="M37 10l240 660c2 6 5 10 11 10h13c6 0 9 -4 11 -10l238 -660c2 -6 -1 -10 -7 -10h-14c-6 0 -10 2 -13 10l-66 185h-313l-67 -185c-3 -8 -7 -10 -13 -10h-13c-6 0 -9 4 -7 10zM147 224h292l-144 403h-2zM302 765h-7c-8 0 -10 1 -18 10l-87 103c-4 5 -2 10 4 10h15
c7 0 10 -2 17 -10l80 -103c5 -6 2 -10 -4 -10z" />
      <glyph d="M37 10l240 660c2 6 5 10 11 10h13c6 0 9 -4 11 -10l238 -660c2 -6 -1 -10 -7 -10h-14c-6 0 -10 2 -13 10l-66 185h-313l-67 -185c-3 -8 -7 -10 -13 -10h-13c-6 0 -9 4 -7 10zM147 224h292l-144 403h-2zM291 765h-7c-6 0 -9 4 -4 10l80 103c7 8 10 10 17 10h15
c6 0 8 -5 4 -10l-87 -103c-8 -9 -10 -10 -18 -10z" />
      <glyph d="M37 10l240 660c2 6 5 10 11 10h13c6 0 9 -4 11 -10l238 -660c2 -6 -1 -10 -7 -10h-14c-6 0 -10 2 -13 10l-66 185h-313l-67 -185c-3 -8 -7 -10 -13 -10h-13c-6 0 -9 4 -7 10zM147 224h292l-144 403h-2zM394 755h-8c-7 0 -10 2 -16 10l-76 98h-2l-76 -98
c-6 -8 -9 -10 -16 -10h-8c-6 0 -8 5 -4 10l87 121c5 7 8 9 14 9h8c6 0 9 -2 14 -9l87 -121c4 -5 2 -10 -4 -10z" />
      <glyph d="M37 10l240 660c2 6 5 10 11 10h13c6 0 9 -4 11 -10l238 -660c2 -6 -1 -10 -7 -10h-14c-6 0 -10 2 -13 10l-66 185h-313l-67 -185c-3 -8 -7 -10 -13 -10h-13c-6 0 -9 4 -7 10zM147 224h292l-144 403h-2zM344 794c-23 0 -41 11 -57 21c-14 9 -29 18 -46 18
c-20 0 -36 -13 -55 -34c-4 -4 -8 -2 -8 3v15c0 5 1 8 7 14c15 16 34 28 57 28s42 -11 57 -21s29 -18 46 -18c20 0 36 13 55 34c4 4 8 2 8 -3v-15c0 -5 -1 -8 -7 -14c-15 -16 -34 -28 -57 -28z" />
      <glyph d="M37 10l240 660c2 6 5 10 11 10h13c6 0 9 -4 11 -10l238 -660c2 -6 -1 -10 -7 -10h-14c-6 0 -10 2 -13 10l-66 185h-313l-67 -185c-3 -8 -7 -10 -13 -10h-13c-6 0 -9 4 -7 10zM147 224h292l-144 403h-2zM405 795h-24c-6 0 -10 4 -10 10v40c0 6 4 10 10 10h24
c6 0 10 -4 10 -10v-40c0 -6 -4 -10 -10 -10zM205 795h-24c-6 0 -10 4 -10 10v40c0 6 4 10 10 10h24c6 0 10 -4 10 -10v-40c0 -6 -4 -10 -10 -10z" />
      <glyph d="M37 10l240 660c2 6 5 10 11 10h13c6 0 9 -4 11 -10l238 -660c2 -6 -1 -10 -7 -10h-14c-6 0 -10 2 -13 10l-66 185h-313l-67 -185c-3 -8 -7 -10 -13 -10h-13c-6 0 -9 4 -7 10zM147 224h292l-144 403h-2zM409 810h-232c-6 0 -10 4 -10 10v8c0 6 4 10 10 10h232
c6 0 10 -4 10 -10v-8c0 -6 -4 -10 -10 -10z" />
      <glyph d="M37 10l240 660c2 6 5 10 11 10h13c6 0 9 -4 11 -10l238 -660c2 -6 -1 -10 -7 -10h-14c-6 0 -10 2 -13 10l-66 185h-313l-67 -185c-3 -8 -7 -10 -13 -10h-13c-6 0 -9 4 -7 10zM147 224h292l-144 403h-2zM293 775c-61 0 -106 38 -116 94c-1 6 3 10 9 10h7c7 0 9 -4 11 -10
c12 -43 43 -67 89 -67s78 24 90 67c2 6 4 10 11 10h6c6 0 10 -4 9 -10c-10 -56 -55 -94 -116 -94z" />
      <glyph d="M37 10l240 660c2 6 5 10 11 10h13c6 0 9 -4 11 -10l238 -660c2 -6 -1 -10 -7 -10h-14c-6 0 -10 2 -13 10l-66 185h-313l-67 -185c-3 -8 -7 -10 -13 -10h-13c-6 0 -9 4 -7 10zM147 224h292l-144 403h-2zM293 746c-48 0 -83 35 -83 83s35 83 83 83s83 -35 83 -83
s-35 -83 -83 -83zM293 772c33 0 56 24 56 57s-23 57 -56 57s-56 -24 -56 -57s23 -57 56 -57z" />
      <glyph d="M301 794h-9c-6 0 -7 5 -1 10l80 74c6 6 11 10 19 10h17c6 0 7 -6 2 -10l-87 -74c-9 -7 -13 -10 -21 -10zM543 0h-14c-6 0 -10 2 -13 10l-69 185h-308l-69 -185c-3 -8 -7 -10 -13 -10h-13c-6 0 -9 4 -7 10l224 598c-30 12 -50 41 -50 77c0 48 35 83 83 83s83 -35 83 -83
c0 -36 -20 -65 -50 -77l223 -598c2 -6 -1 -10 -7 -10zM294 628c33 0 56 24 56 57s-23 57 -56 57s-56 -24 -56 -57s23 -57 56 -57zM292 602l-142 -378h287l-141 378h-4z" />
      <glyph d="M493 -162c-37 0 -59 21 -59 57c0 29 17 62 83 111l-67 189h-313l-67 -185c-3 -8 -7 -10 -13 -10h-13c-6 0 -9 4 -7 10l240 660c2 6 5 10 11 10h13c6 0 9 -4 11 -10l238 -660c2 -5 0 -8 -3 -10c-74 -59 -83 -82 -83 -103c0 -19 12 -31 31 -31c10 0 20 5 30 11
c5 3 11 2 14 -3l3 -5c3 -5 2 -10 -3 -14c-9 -8 -28 -17 -46 -17zM293 627l-146 -403h292l-144 403h-2z" />
      <glyph d="M884 0h-374c-6 0 -10 4 -10 10v179c0 4 -2 6 -6 6h-298l-123 -185c-5 -8 -9 -10 -15 -10h-15c-6 0 -8 5 -5 10l438 662c4 6 8 8 15 8h393c6 0 10 -4 10 -10v-9c0 -6 -4 -10 -10 -10h-347c-4 0 -6 -2 -6 -6v-279c0 -4 2 -6 6 -6h300c6 0 10 -4 10 -10v-9
c0 -6 -4 -10 -10 -10h-300c-4 0 -6 -2 -6 -6v-290c0 -4 2 -6 6 -6h347c6 0 10 -4 10 -10v-9c0 -6 -4 -10 -10 -10zM497 648l-282 -424h279c4 0 6 2 6 6v418h-3z" />
      <glyph d="M884 0h-374c-6 0 -10 4 -10 10v179c0 4 -2 6 -6 6h-298l-123 -185c-5 -8 -9 -10 -15 -10h-15c-6 0 -8 5 -5 10l438 662c4 6 8 8 15 8h393c6 0 10 -4 10 -10v-9c0 -6 -4 -10 -10 -10h-347c-4 0 -6 -2 -6 -6v-279c0 -4 2 -6 6 -6h300c6 0 10 -4 10 -10v-9
c0 -6 -4 -10 -10 -10h-300c-4 0 -6 -2 -6 -6v-290c0 -4 2 -6 6 -6h347c6 0 10 -4 10 -10v-9c0 -6 -4 -10 -10 -10zM497 648l-282 -424h279c4 0 6 2 6 6v418h-3zM540 765h-7c-6 0 -9 4 -4 10l80 103c7 8 10 10 17 10h15c6 0 8 -5 4 -10l-87 -103c-8 -9 -10 -10 -18 -10z" />
      <glyph d="M88 135c-10 30 -18 81 -18 205s8 175 18 205c32 98 102 145 205 145c86 0 155 -37 194 -116c3 -5 3 -10 -2 -13l-10 -5c-5 -3 -10 -1 -13 4c-35 64 -88 101 -169 101c-91 0 -147 -40 -175 -124c-9 -27 -17 -76 -17 -197s8 -170 17 -197c28 -84 84 -124 175 -124
c81 0 134 37 169 101c3 5 8 7 13 4l10 -5c5 -3 5 -8 2 -13c-39 -79 -108 -116 -194 -116c-103 0 -173 47 -205 145zM275 765h-7c-6 0 -9 4 -4 10l80 103c7 8 10 10 17 10h15c6 0 8 -5 4 -10l-87 -103c-8 -9 -10 -10 -18 -10z" />
      <glyph d="M88 135c-10 30 -18 81 -18 205s8 175 18 205c32 98 102 145 205 145c86 0 155 -37 194 -116c3 -5 3 -10 -2 -13l-10 -5c-5 -3 -10 -1 -13 4c-35 64 -88 101 -169 101c-91 0 -147 -40 -175 -124c-9 -27 -17 -76 -17 -197s8 -170 17 -197c28 -84 84 -124 175 -124
c81 0 134 37 169 101c3 5 8 7 13 4l10 -5c5 -3 5 -8 2 -13c-39 -79 -108 -116 -194 -116c-103 0 -173 47 -205 145zM391 755h-8c-7 0 -10 2 -16 10l-76 98h-2l-76 -98c-6 -8 -9 -10 -16 -10h-8c-6 0 -8 5 -4 10l87 121c5 7 8 9 14 9h8c6 0 9 -2 14 -9l87 -121
c4 -5 2 -10 -4 -10z" />
      <glyph d="M88 135c-10 30 -18 81 -18 205s8 175 18 205c32 98 102 145 205 145c86 0 155 -37 194 -116c3 -5 3 -10 -2 -13l-10 -5c-5 -3 -10 -1 -13 4c-35 64 -88 101 -169 101c-91 0 -147 -40 -175 -124c-9 -27 -17 -76 -17 -197s8 -170 17 -197c28 -84 84 -124 175 -124
c81 0 134 37 169 101c3 5 8 7 13 4l10 -5c5 -3 5 -8 2 -13c-39 -79 -108 -116 -194 -116c-103 0 -173 47 -205 145zM294 755h-8c-6 0 -9 2 -14 9l-87 121c-4 5 -2 10 4 10h8c7 0 10 -2 16 -10l76 -98h2l76 98c6 8 9 10 16 10h8c6 0 8 -5 4 -10l-87 -121c-5 -7 -8 -9 -14 -9z
" />
      <glyph d="M88 135c-10 30 -18 81 -18 205s8 175 18 205c32 98 102 145 205 145c86 0 155 -37 194 -116c3 -5 3 -10 -2 -13l-10 -5c-5 -3 -10 -1 -13 4c-35 64 -88 101 -169 101c-91 0 -147 -40 -175 -124c-9 -27 -17 -76 -17 -197s8 -170 17 -197c28 -84 84 -124 175 -124
c81 0 134 37 169 101c3 5 8 7 13 4l10 -5c5 -3 5 -8 2 -13c-39 -79 -108 -116 -194 -116c-103 0 -173 47 -205 145zM302 795h-24c-6 0 -10 4 -10 10v40c0 6 4 10 10 10h24c6 0 10 -4 10 -10v-40c0 -6 -4 -10 -10 -10z" />
      <glyph d="M252 -145h-11c-6 0 -9 4 -7 10l48 125c-97 4 -163 50 -194 145c-10 30 -18 81 -18 205s8 175 18 205c32 98 102 145 205 145c86 0 155 -37 194 -116c3 -5 3 -10 -2 -13l-10 -5c-5 -3 -10 -1 -13 4c-35 64 -88 101 -169 101c-91 0 -147 -40 -175 -124
c-9 -27 -17 -76 -17 -197s8 -170 17 -197c28 -84 84 -124 175 -124c81 0 134 37 169 101c3 5 8 7 13 4l10 -5c5 -3 5 -8 2 -13c-37 -74 -99 -110 -177 -115l-42 -126c-3 -8 -7 -10 -16 -10z" />
      <glyph d="M102 10v660c0 6 4 10 10 10h200c111 0 184 -42 213 -132c14 -43 19 -81 19 -208s-5 -165 -19 -208c-29 -90 -102 -132 -213 -132h-200c-6 0 -10 4 -10 10zM133 35c0 -4 2 -6 6 -6h173c94 0 158 33 183 110c13 40 18 78 18 201s-5 161 -18 201c-25 77 -89 110 -183 110
h-173c-4 0 -6 -2 -6 -6v-610zM303 755h-8c-6 0 -9 2 -14 9l-87 121c-4 5 -2 10 4 10h8c7 0 10 -2 16 -10l76 -98h2l76 98c6 8 9 10 16 10h8c6 0 8 -5 4 -10l-87 -121c-5 -7 -8 -9 -14 -9z" />
      <glyph d="M312 0h-200c-6 0 -10 4 -10 10v315c0 4 -2 6 -6 6h-46c-6 0 -10 4 -10 10v8c0 6 4 10 10 10h46c4 0 6 2 6 6v305c0 6 4 10 10 10h200c111 0 184 -42 213 -132c14 -43 19 -81 19 -208s-5 -165 -19 -208c-29 -90 -102 -132 -213 -132zM312 29c94 0 158 33 183 110
c13 40 18 78 18 201s-5 161 -18 201c-25 77 -89 110 -183 110h-173c-4 0 -6 -2 -6 -6v-280c0 -4 2 -6 6 -6h145c6 0 10 -4 10 -10v-8c0 -6 -4 -10 -10 -10h-145c-4 0 -6 -2 -6 -6v-290c0 -4 2 -6 6 -6h173z" />
      <glyph d="M312 0h-200c-6 0 -10 4 -10 10v315c0 4 -2 6 -6 6h-46c-6 0 -10 4 -10 10v8c0 6 4 10 10 10h46c4 0 6 2 6 6v305c0 6 4 10 10 10h200c111 0 184 -42 213 -132c14 -43 19 -81 19 -208s-5 -165 -19 -208c-29 -90 -102 -132 -213 -132zM312 29c94 0 158 33 183 110
c13 40 18 78 18 201s-5 161 -18 201c-25 77 -89 110 -183 110h-173c-4 0 -6 -2 -6 -6v-280c0 -4 2 -6 6 -6h145c6 0 10 -4 10 -10v-8c0 -6 -4 -10 -10 -10h-145c-4 0 -6 -2 -6 -6v-290c0 -4 2 -6 6 -6h173z" />
      <glyph d="M102 10v660c0 6 4 10 10 10h374c6 0 10 -4 10 -10v-9c0 -6 -4 -10 -10 -10h-347c-4 0 -6 -2 -6 -6v-279c0 -4 2 -6 6 -6h300c6 0 10 -4 10 -10v-9c0 -6 -4 -10 -10 -10h-300c-4 0 -6 -2 -6 -6v-290c0 -4 2 -6 6 -6h347c6 0 10 -4 10 -10v-9c0 -6 -4 -10 -10 -10h-374
c-6 0 -10 4 -10 10zM318 765h-7c-8 0 -10 1 -18 10l-87 103c-4 5 -2 10 4 10h15c7 0 10 -2 17 -10l80 -103c5 -6 2 -10 -4 -10z" />
      <glyph d="M102 10v660c0 6 4 10 10 10h374c6 0 10 -4 10 -10v-9c0 -6 -4 -10 -10 -10h-347c-4 0 -6 -2 -6 -6v-279c0 -4 2 -6 6 -6h300c6 0 10 -4 10 -10v-9c0 -6 -4 -10 -10 -10h-300c-4 0 -6 -2 -6 -6v-290c0 -4 2 -6 6 -6h347c6 0 10 -4 10 -10v-9c0 -6 -4 -10 -10 -10h-374
c-6 0 -10 4 -10 10zM274 765h-7c-6 0 -9 4 -4 10l80 103c7 8 10 10 17 10h15c6 0 8 -5 4 -10l-87 -103c-8 -9 -10 -10 -18 -10z" />
      <glyph d="M102 10v660c0 6 4 10 10 10h374c6 0 10 -4 10 -10v-9c0 -6 -4 -10 -10 -10h-347c-4 0 -6 -2 -6 -6v-279c0 -4 2 -6 6 -6h300c6 0 10 -4 10 -10v-9c0 -6 -4 -10 -10 -10h-300c-4 0 -6 -2 -6 -6v-290c0 -4 2 -6 6 -6h347c6 0 10 -4 10 -10v-9c0 -6 -4 -10 -10 -10h-374
c-6 0 -10 4 -10 10zM399 755h-8c-7 0 -10 2 -16 10l-76 98h-2l-76 -98c-6 -8 -9 -10 -16 -10h-8c-6 0 -8 5 -4 10l87 121c5 7 8 9 14 9h8c6 0 9 -2 14 -9l87 -121c4 -5 2 -10 -4 -10z" />
      <glyph d="M102 10v660c0 6 4 10 10 10h374c6 0 10 -4 10 -10v-9c0 -6 -4 -10 -10 -10h-347c-4 0 -6 -2 -6 -6v-279c0 -4 2 -6 6 -6h300c6 0 10 -4 10 -10v-9c0 -6 -4 -10 -10 -10h-300c-4 0 -6 -2 -6 -6v-290c0 -4 2 -6 6 -6h347c6 0 10 -4 10 -10v-9c0 -6 -4 -10 -10 -10h-374
c-6 0 -10 4 -10 10zM302 755h-8c-6 0 -9 2 -14 9l-87 121c-4 5 -2 10 4 10h8c7 0 10 -2 16 -10l76 -98h2l76 98c6 8 9 10 16 10h8c6 0 8 -5 4 -10l-87 -121c-5 -7 -8 -9 -14 -9z" />
      <glyph d="M102 10v660c0 6 4 10 10 10h374c6 0 10 -4 10 -10v-9c0 -6 -4 -10 -10 -10h-347c-4 0 -6 -2 -6 -6v-279c0 -4 2 -6 6 -6h300c6 0 10 -4 10 -10v-9c0 -6 -4 -10 -10 -10h-300c-4 0 -6 -2 -6 -6v-290c0 -4 2 -6 6 -6h347c6 0 10 -4 10 -10v-9c0 -6 -4 -10 -10 -10h-374
c-6 0 -10 4 -10 10zM405 795h-24c-6 0 -10 4 -10 10v40c0 6 4 10 10 10h24c6 0 10 -4 10 -10v-40c0 -6 -4 -10 -10 -10zM205 795h-24c-6 0 -10 4 -10 10v40c0 6 4 10 10 10h24c6 0 10 -4 10 -10v-40c0 -6 -4 -10 -10 -10z" />
      <glyph d="M102 10v660c0 6 4 10 10 10h374c6 0 10 -4 10 -10v-9c0 -6 -4 -10 -10 -10h-347c-4 0 -6 -2 -6 -6v-279c0 -4 2 -6 6 -6h300c6 0 10 -4 10 -10v-9c0 -6 -4 -10 -10 -10h-300c-4 0 -6 -2 -6 -6v-290c0 -4 2 -6 6 -6h347c6 0 10 -4 10 -10v-9c0 -6 -4 -10 -10 -10h-374
c-6 0 -10 4 -10 10zM409 810h-232c-6 0 -10 4 -10 10v8c0 6 4 10 10 10h232c6 0 10 -4 10 -10v-8c0 -6 -4 -10 -10 -10z" />
      <glyph d="M102 10v660c0 6 4 10 10 10h374c6 0 10 -4 10 -10v-9c0 -6 -4 -10 -10 -10h-347c-4 0 -6 -2 -6 -6v-279c0 -4 2 -6 6 -6h300c6 0 10 -4 10 -10v-9c0 -6 -4 -10 -10 -10h-300c-4 0 -6 -2 -6 -6v-290c0 -4 2 -6 6 -6h347c6 0 10 -4 10 -10v-9c0 -6 -4 -10 -10 -10h-374
c-6 0 -10 4 -10 10zM295 775c-61 0 -106 38 -116 94c-1 6 3 10 9 10h7c7 0 9 -4 11 -10c12 -43 43 -67 89 -67s78 24 90 67c2 6 4 10 11 10h6c6 0 10 -4 9 -10c-10 -56 -55 -94 -116 -94z" />
      <glyph d="M102 10v660c0 6 4 10 10 10h374c6 0 10 -4 10 -10v-9c0 -6 -4 -10 -10 -10h-347c-4 0 -6 -2 -6 -6v-279c0 -4 2 -6 6 -6h300c6 0 10 -4 10 -10v-9c0 -6 -4 -10 -10 -10h-300c-4 0 -6 -2 -6 -6v-290c0 -4 2 -6 6 -6h347c6 0 10 -4 10 -10v-9c0 -6 -4 -10 -10 -10h-374
c-6 0 -10 4 -10 10zM311 795h-24c-6 0 -10 4 -10 10v40c0 6 4 10 10 10h24c6 0 10 -4 10 -10v-40c0 -6 -4 -10 -10 -10z" />
      <glyph d="M424 -162c-37 0 -59 21 -59 57c0 29 15 58 75 105h-328c-6 0 -10 4 -10 10v660c0 6 4 10 10 10h374c6 0 10 -4 10 -10v-9c0 -6 -4 -10 -10 -10h-347c-4 0 -6 -2 -6 -6v-279c0 -4 2 -6 6 -6h300c6 0 10 -4 10 -10v-9c0 -6 -4 -10 -10 -10h-300c-4 0 -6 -2 -6 -6v-290
c0 -4 2 -6 6 -6h347c6 0 10 -4 10 -10v-9c0 -6 -4 -10 -10 -10h-9c-74 -59 -82 -82 -82 -103c0 -19 12 -31 31 -31c10 0 20 5 30 11c5 3 11 2 14 -3l3 -5c3 -5 2 -10 -3 -14c-9 -8 -28 -17 -46 -17z" />
      <glyph d="M89 138c-10 30 -19 78 -19 202s9 172 19 202c32 98 106 148 212 148c104 0 170 -50 202 -115c3 -6 4 -12 -2 -15l-9 -5c-4 -2 -10 -2 -13 3c-36 66 -91 103 -178 103c-91 0 -154 -43 -182 -127c-9 -27 -18 -73 -18 -194s9 -167 18 -194c28 -84 91 -127 182 -127
s154 43 182 127c9 27 18 73 18 151c0 4 -2 6 -6 6h-173c-6 0 -10 4 -10 10v9c0 6 4 10 10 10h200c6 0 10 -4 10 -10v-32c0 -74 -9 -122 -19 -152c-32 -98 -106 -148 -212 -148s-180 50 -212 148zM402 755h-8c-7 0 -10 2 -16 10l-76 98h-2l-76 -98c-6 -8 -9 -10 -16 -10h-8
c-6 0 -8 5 -4 10l87 121c5 7 8 9 14 9h8c6 0 9 -2 14 -9l87 -121c4 -5 2 -10 -4 -10z" />
      <glyph d="M89 138c-10 30 -19 78 -19 202s9 172 19 202c32 98 106 148 212 148c104 0 170 -50 202 -115c3 -6 4 -12 -2 -15l-9 -5c-4 -2 -10 -2 -13 3c-36 66 -91 103 -178 103c-91 0 -154 -43 -182 -127c-9 -27 -18 -73 -18 -194s9 -167 18 -194c28 -84 91 -127 182 -127
s154 43 182 127c9 27 18 73 18 151c0 4 -2 6 -6 6h-173c-6 0 -10 4 -10 10v9c0 6 4 10 10 10h200c6 0 10 -4 10 -10v-32c0 -74 -9 -122 -19 -152c-32 -98 -106 -148 -212 -148s-180 50 -212 148zM301 775c-61 0 -106 38 -116 94c-1 6 3 10 9 10h7c7 0 9 -4 11 -10
c12 -43 43 -67 89 -67s78 24 90 67c2 6 4 10 11 10h6c6 0 10 -4 9 -10c-10 -56 -55 -94 -116 -94z" />
      <glyph d="M89 138c-10 30 -19 78 -19 202s9 172 19 202c32 98 106 148 212 148c104 0 170 -50 202 -115c3 -6 4 -12 -2 -15l-9 -5c-4 -2 -10 -2 -13 3c-36 66 -91 103 -178 103c-91 0 -154 -43 -182 -127c-9 -27 -18 -73 -18 -194s9 -167 18 -194c28 -84 91 -127 182 -127
s154 43 182 127c9 27 18 73 18 151c0 4 -2 6 -6 6h-173c-6 0 -10 4 -10 10v9c0 6 4 10 10 10h200c6 0 10 -4 10 -10v-32c0 -74 -9 -122 -19 -152c-32 -98 -106 -148 -212 -148s-180 50 -212 148zM313 795h-24c-6 0 -10 4 -10 10v40c0 6 4 10 10 10h24c6 0 10 -4 10 -10v-40
c0 -6 -4 -10 -10 -10z" />
      <glyph d="M89 138c-10 30 -19 78 -19 202s9 172 19 202c32 98 106 148 212 148c104 0 170 -50 202 -115c3 -6 4 -12 -2 -15l-9 -5c-4 -2 -10 -2 -13 3c-36 66 -91 103 -178 103c-91 0 -154 -43 -182 -127c-9 -27 -18 -73 -18 -194s9 -167 18 -194c28 -84 91 -127 182 -127
s154 43 182 127c9 27 18 73 18 151c0 4 -2 6 -6 6h-173c-6 0 -10 4 -10 10v9c0 6 4 10 10 10h200c6 0 10 -4 10 -10v-32c0 -74 -9 -122 -19 -152c-32 -98 -106 -148 -212 -148s-180 50 -212 148zM293 -183c-6 0 -7 3 -7 9v109c0 6 3 10 9 10h11c6 0 9 -4 9 -10v-64
c0 -10 -1 -18 -5 -28l-7 -19c-2 -4 -5 -7 -10 -7z" />
      <glyph d="M102 10v660c0 6 4 10 10 10h11c6 0 10 -4 10 -10v-304c0 -4 2 -6 6 -6h369c4 0 6 2 6 6v304c0 6 4 10 10 10h11c6 0 10 -4 10 -10v-660c0 -6 -4 -10 -10 -10h-11c-6 0 -10 4 -10 10v315c0 4 -2 6 -6 6h-369c-4 0 -6 -2 -6 -6v-315c0 -6 -4 -10 -10 -10h-11
c-6 0 -10 4 -10 10zM424 755h-8c-7 0 -10 2 -16 10l-76 98h-2l-76 -98c-6 -8 -9 -10 -16 -10h-8c-6 0 -8 5 -4 10l87 121c5 7 8 9 14 9h8c6 0 9 -2 14 -9l87 -121c4 -5 2 -10 -4 -10z" />
      <glyph d="M535 0h-11c-6 0 -10 4 -10 10v315c0 4 -2 6 -6 6h-369c-4 0 -6 -2 -6 -6v-315c0 -6 -4 -10 -10 -10h-11c-6 0 -10 4 -10 10v487c0 4 -2 6 -6 6h-42c-6 0 -10 4 -10 10v7c0 6 4 10 10 10h42c4 0 6 2 6 6v134c0 6 4 10 10 10h11c6 0 10 -4 10 -10v-134c0 -4 2 -6 6 -6h369
c4 0 6 2 6 6v134c0 6 4 10 10 10h11c6 0 10 -4 10 -10v-134c0 -4 2 -6 6 -6h42c6 0 10 -4 10 -10v-7c0 -6 -4 -10 -10 -10h-42c-4 0 -6 -2 -6 -6v-487c0 -6 -4 -10 -10 -10zM508 360c4 0 6 2 6 6v131c0 4 -2 6 -6 6h-369c-4 0 -6 -2 -6 -6v-131c0 -4 2 -6 6 -6h369z" />
      <glyph d="M102 10v660c0 6 4 10 10 10h11c6 0 10 -4 10 -10v-660c0 -6 -4 -10 -10 -10h-11c-6 0 -10 4 -10 10zM130 765h-7c-8 0 -10 1 -18 10l-87 103c-4 5 -2 10 4 10h15c7 0 10 -2 17 -10l80 -103c5 -6 2 -10 -4 -10z" />
      <glyph d="M102 10v660c0 6 4 10 10 10h11c6 0 10 -4 10 -10v-660c0 -6 -4 -10 -10 -10h-11c-6 0 -10 4 -10 10zM113 765h-7c-6 0 -9 4 -4 10l80 103c7 8 10 10 17 10h15c6 0 8 -5 4 -10l-87 -103c-8 -9 -10 -10 -18 -10z" />
      <glyph d="M102 10v660c0 6 4 10 10 10h11c6 0 10 -4 10 -10v-660c0 -6 -4 -10 -10 -10h-11c-6 0 -10 4 -10 10zM118 775c-61 0 -106 38 -116 94c-1 6 3 10 9 10h7c7 0 9 -4 11 -10c12 -43 43 -67 89 -67s78 24 90 67c2 6 4 10 11 10h6c6 0 10 -4 9 -10c-10 -56 -55 -94 -116 -94z
" />
      <glyph d="M102 10v660c0 6 4 10 10 10h11c6 0 10 -4 10 -10v-660c0 -6 -4 -10 -10 -10h-11c-6 0 -10 4 -10 10zM218 755h-8c-7 0 -10 2 -16 10l-76 98h-2l-76 -98c-6 -8 -9 -10 -16 -10h-8c-6 0 -8 5 -4 10l87 121c5 7 8 9 14 9h8c6 0 9 -2 14 -9l87 -121c4 -5 2 -10 -4 -10z" />
      <glyph d="M102 10v660c0 6 4 10 10 10h11c6 0 10 -4 10 -10v-660c0 -6 -4 -10 -10 -10h-11c-6 0 -10 4 -10 10zM169 794c-23 0 -41 11 -57 21c-14 9 -29 18 -46 18c-20 0 -36 -13 -55 -34c-4 -4 -8 -2 -8 3v15c0 5 1 8 7 14c15 16 34 28 57 28s42 -11 57 -21s29 -18 46 -18
c20 0 36 13 55 34c4 4 8 2 8 -3v-15c0 -5 -1 -8 -7 -14c-15 -16 -34 -28 -57 -28z" />
      <glyph d="M102 10v660c0 6 4 10 10 10h11c6 0 10 -4 10 -10v-660c0 -6 -4 -10 -10 -10h-11c-6 0 -10 4 -10 10zM229 795h-24c-6 0 -10 4 -10 10v40c0 6 4 10 10 10h24c6 0 10 -4 10 -10v-40c0 -6 -4 -10 -10 -10zM29 795h-24c-6 0 -10 4 -10 10v40c0 6 4 10 10 10h24
c6 0 10 -4 10 -10v-40c0 -6 -4 -10 -10 -10z" />
      <glyph d="M102 10v660c0 6 4 10 10 10h11c6 0 10 -4 10 -10v-660c0 -6 -4 -10 -10 -10h-11c-6 0 -10 4 -10 10zM234 810h-232c-6 0 -10 4 -10 10v8c0 6 4 10 10 10h232c6 0 10 -4 10 -10v-8c0 -6 -4 -10 -10 -10z" />
      <glyph d="M102 10v660c0 6 4 10 10 10h11c6 0 10 -4 10 -10v-660c0 -6 -4 -10 -10 -10h-11c-6 0 -10 4 -10 10zM130 795h-24c-6 0 -10 4 -10 10v40c0 6 4 10 10 10h24c6 0 10 -4 10 -10v-40c0 -6 -4 -10 -10 -10z" />
      <glyph d="M96 -162c-37 0 -59 21 -59 57c0 27 12 53 65 112v663c0 6 4 10 10 10h11c6 0 10 -4 10 -10v-659c0 -4 -1 -7 -4 -10c-55 -63 -62 -82 -62 -104c0 -19 12 -31 31 -31c10 0 20 5 30 11c5 3 11 2 14 -3l3 -5c3 -5 2 -10 -3 -14c-9 -8 -28 -17 -46 -17z" />
      <glyph d="M47 34c-5 3 -6 9 -3 14l8 9c4 4 10 4 15 1c27 -20 69 -39 114 -39c92 0 153 47 153 173v478c0 6 4 10 10 10h11c6 0 10 -4 10 -10v-479c0 -141 -73 -201 -184 -201c-52 0 -101 19 -134 44zM448 755h-8c-7 0 -10 2 -16 10l-76 98h-2l-76 -98c-6 -8 -9 -10 -16 -10h-8
c-6 0 -8 5 -4 10l87 121c5 7 8 9 14 9h8c6 0 9 -2 14 -9l87 -121c4 -5 2 -10 -4 -10z" />
      <glyph d="M102 10v660c0 6 4 10 10 10h11c6 0 10 -4 10 -10v-421l353 421c6 7 10 10 17 10h18c6 0 9 -5 5 -10l-217 -258l231 -402c3 -5 1 -10 -5 -10h-17c-6 0 -10 3 -14 10l-217 377l-154 -184v-193c0 -6 -4 -10 -10 -10h-11c-6 0 -10 4 -10 10zM283 -183c-6 0 -7 3 -7 9v109
c0 6 3 10 9 10h11c6 0 9 -4 9 -10v-64c0 -10 -1 -18 -5 -28l-7 -19c-2 -4 -5 -7 -10 -7z" />
      <glyph d="M102 10v660c0 6 4 10 10 10h11c6 0 10 -4 10 -10v-635c0 -4 2 -6 6 -6h347c6 0 10 -4 10 -10v-9c0 -6 -4 -10 -10 -10h-374c-6 0 -10 4 -10 10zM111 765h-7c-6 0 -9 4 -4 10l80 103c7 8 10 10 17 10h15c6 0 8 -5 4 -10l-87 -103c-8 -9 -10 -10 -18 -10z" />
      <glyph d="M102 10v660c0 6 4 10 10 10h11c6 0 10 -4 10 -10v-635c0 -4 2 -6 6 -6h347c6 0 10 -4 10 -10v-9c0 -6 -4 -10 -10 -10h-374c-6 0 -10 4 -10 10zM255 552c-6 0 -7 3 -7 9v109c0 6 3 10 9 10h11c6 0 9 -4 9 -10v-64c0 -10 -1 -18 -5 -28l-7 -19c-2 -4 -5 -7 -10 -7z" />
      <glyph d="M102 10v660c0 6 4 10 10 10h11c6 0 10 -4 10 -10v-635c0 -4 2 -6 6 -6h347c6 0 10 -4 10 -10v-9c0 -6 -4 -10 -10 -10h-374c-6 0 -10 4 -10 10zM297 -183c-6 0 -7 3 -7 9v109c0 6 3 10 9 10h11c6 0 9 -4 9 -10v-64c0 -10 -1 -18 -5 -28l-7 -19c-2 -4 -5 -7 -10 -7z" />
      <glyph d="M486 0h-374c-6 0 -10 4 -10 10v297l-59 -30c-6 -3 -10 0 -10 6v12c0 6 2 10 10 14l59 30v331c0 6 4 10 10 10h11c6 0 10 -4 10 -10v-315l171 87c6 3 10 0 10 -6v-12c0 -6 -2 -10 -10 -14l-171 -87v-288c0 -4 2 -6 6 -6h347c6 0 10 -4 10 -10v-9c0 -6 -4 -10 -10 -10z" />
      <glyph d="M102 10v660c0 6 4 10 10 10h11c6 0 10 -4 10 -10v-635c0 -4 2 -6 6 -6h347c6 0 10 -4 10 -10v-9c0 -6 -4 -10 -10 -10h-374c-6 0 -10 4 -10 10zM393 292h-28c-6 0 -10 4 -10 10v50c0 6 4 10 10 10h28c6 0 10 -4 10 -10v-50c0 -6 -4 -10 -10 -10z" />
      <glyph d="M102 10v660c0 6 4 10 10 10h9c6 0 12 -1 17 -10l374 -603h3v603c0 6 4 10 10 10h11c6 0 10 -4 10 -10v-660c0 -6 -4 -10 -10 -10h-9c-6 0 -12 1 -17 10l-374 603h-3v-603c0 -6 -4 -10 -10 -10h-11c-6 0 -10 4 -10 10zM298 765h-7c-6 0 -9 4 -4 10l80 103c7 8 10 10 17 10
h15c6 0 8 -5 4 -10l-87 -103c-8 -9 -10 -10 -18 -10z" />
      <glyph d="M102 10v660c0 6 4 10 10 10h9c6 0 12 -1 17 -10l374 -603h3v603c0 6 4 10 10 10h11c6 0 10 -4 10 -10v-660c0 -6 -4 -10 -10 -10h-9c-6 0 -12 1 -17 10l-374 603h-3v-603c0 -6 -4 -10 -10 -10h-11c-6 0 -10 4 -10 10zM328 755h-8c-6 0 -9 2 -14 9l-87 121
c-4 5 -2 10 4 10h8c7 0 10 -2 16 -10l76 -98h2l76 98c6 8 9 10 16 10h8c6 0 8 -5 4 -10l-87 -121c-5 -7 -8 -9 -14 -9z" />
      <glyph d="M102 10v660c0 6 4 10 10 10h9c6 0 12 -1 17 -10l374 -603h3v603c0 6 4 10 10 10h11c6 0 10 -4 10 -10v-660c0 -6 -4 -10 -10 -10h-9c-6 0 -12 1 -17 10l-374 603h-3v-603c0 -6 -4 -10 -10 -10h-11c-6 0 -10 4 -10 10zM375 794c-23 0 -41 11 -57 21c-14 9 -29 18 -46 18
c-20 0 -36 -13 -55 -34c-4 -4 -8 -2 -8 3v15c0 5 1 8 7 14c15 16 34 28 57 28s42 -11 57 -21s29 -18 46 -18c20 0 36 13 55 34c4 4 8 2 8 -3v-15c0 -5 -1 -8 -7 -14c-15 -16 -34 -28 -57 -28z" />
      <glyph d="M102 10v660c0 6 4 10 10 10h9c6 0 12 -1 17 -10l374 -603h3v603c0 6 4 10 10 10h11c6 0 10 -4 10 -10v-660c0 -6 -4 -10 -10 -10h-9c-6 0 -12 1 -17 10l-374 603h-3v-603c0 -6 -4 -10 -10 -10h-11c-6 0 -10 4 -10 10zM326 -183c-6 0 -7 3 -7 9v109c0 6 3 10 9 10h11
c6 0 9 -4 9 -10v-64c0 -10 -1 -18 -5 -28l-7 -19c-2 -4 -5 -7 -10 -7z" />
      <glyph d="M301 -10c-107 0 -179 50 -211 148c-10 30 -20 78 -20 202s10 172 20 202c32 98 104 148 211 148s179 -50 211 -148c10 -30 20 -78 20 -202s-10 -172 -20 -202c-32 -98 -104 -148 -211 -148zM301 19c92 0 153 43 181 127c9 27 19 73 19 194s-10 167 -19 194
c-28 84 -89 127 -181 127s-153 -43 -181 -127c-9 -27 -19 -73 -19 -194s10 -167 19 -194c28 -84 89 -127 181 -127zM322 765h-7c-8 0 -10 1 -18 10l-87 103c-4 5 -2 10 4 10h15c7 0 10 -2 17 -10l80 -103c5 -6 2 -10 -4 -10z" />
      <glyph d="M301 -10c-107 0 -179 50 -211 148c-10 30 -20 78 -20 202s10 172 20 202c32 98 104 148 211 148s179 -50 211 -148c10 -30 20 -78 20 -202s-10 -172 -20 -202c-32 -98 -104 -148 -211 -148zM301 19c92 0 153 43 181 127c9 27 19 73 19 194s-10 167 -19 194
c-28 84 -89 127 -181 127s-153 -43 -181 -127c-9 -27 -19 -73 -19 -194s10 -167 19 -194c28 -84 89 -127 181 -127zM287 765h-7c-6 0 -9 4 -4 10l80 103c7 8 10 10 17 10h15c6 0 8 -5 4 -10l-87 -103c-8 -9 -10 -10 -18 -10z" />
      <glyph d="M301 -10c-107 0 -179 50 -211 148c-10 30 -20 78 -20 202s10 172 20 202c32 98 104 148 211 148s179 -50 211 -148c10 -30 20 -78 20 -202s-10 -172 -20 -202c-32 -98 -104 -148 -211 -148zM301 19c92 0 153 43 181 127c9 27 19 73 19 194s-10 167 -19 194
c-28 84 -89 127 -181 127s-153 -43 -181 -127c-9 -27 -19 -73 -19 -194s10 -167 19 -194c28 -84 89 -127 181 -127zM402 755h-8c-7 0 -10 2 -16 10l-76 98h-2l-76 -98c-6 -8 -9 -10 -16 -10h-8c-6 0 -8 5 -4 10l87 121c5 7 8 9 14 9h8c6 0 9 -2 14 -9l87 -121
c4 -5 2 -10 -4 -10z" />
      <glyph d="M301 -10c-107 0 -179 50 -211 148c-10 30 -20 78 -20 202s10 172 20 202c32 98 104 148 211 148s179 -50 211 -148c10 -30 20 -78 20 -202s-10 -172 -20 -202c-32 -98 -104 -148 -211 -148zM301 19c92 0 153 43 181 127c9 27 19 73 19 194s-10 167 -19 194
c-28 84 -89 127 -181 127s-153 -43 -181 -127c-9 -27 -19 -73 -19 -194s10 -167 19 -194c28 -84 89 -127 181 -127zM352 794c-23 0 -41 11 -57 21c-14 9 -29 18 -46 18c-20 0 -36 -13 -55 -34c-4 -4 -8 -2 -8 3v15c0 5 1 8 7 14c15 16 34 28 57 28s42 -11 57 -21
s29 -18 46 -18c20 0 36 13 55 34c4 4 8 2 8 -3v-15c0 -5 -1 -8 -7 -14c-15 -16 -34 -28 -57 -28z" />
      <glyph d="M301 -10c-107 0 -179 50 -211 148c-10 30 -20 78 -20 202s10 172 20 202c32 98 104 148 211 148s179 -50 211 -148c10 -30 20 -78 20 -202s-10 -172 -20 -202c-32 -98 -104 -148 -211 -148zM301 19c92 0 153 43 181 127c9 27 19 73 19 194s-10 167 -19 194
c-28 84 -89 127 -181 127s-153 -43 -181 -127c-9 -27 -19 -73 -19 -194s10 -167 19 -194c28 -84 89 -127 181 -127zM413 795h-24c-6 0 -10 4 -10 10v40c0 6 4 10 10 10h24c6 0 10 -4 10 -10v-40c0 -6 -4 -10 -10 -10zM213 795h-24c-6 0 -10 4 -10 10v40c0 6 4 10 10 10h24
c6 0 10 -4 10 -10v-40c0 -6 -4 -10 -10 -10z" />
      <glyph d="M301 -10c-107 0 -179 50 -211 148c-10 30 -20 78 -20 202s10 172 20 202c32 98 104 148 211 148s179 -50 211 -148c10 -30 20 -78 20 -202s-10 -172 -20 -202c-32 -98 -104 -148 -211 -148zM301 19c92 0 153 43 181 127c9 27 19 73 19 194s-10 167 -19 194
c-28 84 -89 127 -181 127s-153 -43 -181 -127c-9 -27 -19 -73 -19 -194s10 -167 19 -194c28 -84 89 -127 181 -127zM417 810h-232c-6 0 -10 4 -10 10v8c0 6 4 10 10 10h232c6 0 10 -4 10 -10v-8c0 -6 -4 -10 -10 -10z" />
      <glyph d="M301 -10c-107 0 -179 50 -211 148c-10 30 -20 78 -20 202s10 172 20 202c32 98 104 148 211 148s179 -50 211 -148c10 -30 20 -78 20 -202s-10 -172 -20 -202c-32 -98 -104 -148 -211 -148zM301 19c92 0 153 43 181 127c9 27 19 73 19 194s-10 167 -19 194
c-28 84 -89 127 -181 127s-153 -43 -181 -127c-9 -27 -19 -73 -19 -194s10 -167 19 -194c28 -84 89 -127 181 -127zM301 775c-61 0 -106 38 -116 94c-1 6 3 10 9 10h7c7 0 9 -4 11 -10c12 -43 43 -67 89 -67s78 24 90 67c2 6 4 10 11 10h6c6 0 10 -4 9 -10
c-10 -56 -55 -94 -116 -94z" />
      <glyph d="M301 -10c-107 0 -179 50 -211 148c-10 30 -20 78 -20 202s10 172 20 202c32 98 104 148 211 148s179 -50 211 -148c10 -30 20 -78 20 -202s-10 -172 -20 -202c-32 -98 -104 -148 -211 -148zM301 19c92 0 153 43 181 127c9 27 19 73 19 194s-10 167 -19 194
c-28 84 -89 127 -181 127s-153 -43 -181 -127c-9 -27 -19 -73 -19 -194s10 -167 19 -194c28 -84 89 -127 181 -127zM363 765h-8c-6 0 -8 4 -4 10l68 103c5 7 8 10 16 10h14c6 0 8 -5 4 -10l-75 -104c-5 -7 -8 -9 -15 -9zM253 765h-8c-6 0 -8 4 -4 10l68 103c5 7 8 10 16 10
h14c6 0 8 -5 4 -10l-75 -104c-5 -7 -8 -9 -15 -9z" />
      <glyph d="M100 -30h-10c-6 0 -9 4 -6 10l46 82c-17 21 -31 46 -40 76c-10 30 -20 78 -20 202s10 172 20 202c32 98 104 148 211 148c63 0 114 -18 152 -52l35 62c3 6 7 10 14 10h10c6 0 9 -4 6 -10l-46 -82c17 -21 30 -47 40 -76c10 -30 20 -78 20 -202s-10 -172 -20 -202
c-32 -98 -104 -148 -211 -148c-64 0 -114 17 -152 52l-35 -62c-3 -6 -7 -10 -14 -10zM120 146c7 -21 15 -40 26 -55l291 519c-33 34 -78 51 -136 51c-92 0 -153 -43 -181 -127c-9 -27 -19 -73 -19 -194s10 -167 19 -194zM301 19c92 0 153 43 181 127c9 27 19 73 19 194
s-10 167 -19 194c-7 20 -16 39 -27 54l-291 -518c33 -34 79 -51 137 -51z" />
      <glyph d="M100 -30h-10c-6 0 -9 4 -6 10l46 82c-17 21 -31 46 -40 76c-10 30 -20 78 -20 202s10 172 20 202c32 98 104 148 211 148c63 0 114 -18 152 -52l35 62c3 6 7 10 14 10h10c6 0 9 -4 6 -10l-46 -82c17 -21 30 -47 40 -76c10 -30 20 -78 20 -202s-10 -172 -20 -202
c-32 -98 -104 -148 -211 -148c-64 0 -114 17 -152 52l-35 -62c-3 -6 -7 -10 -14 -10zM120 146c7 -21 15 -40 26 -55l291 519c-33 34 -78 51 -136 51c-92 0 -153 -43 -181 -127c-9 -27 -19 -73 -19 -194s10 -167 19 -194zM301 19c92 0 153 43 181 127c9 27 19 73 19 194
s-10 167 -19 194c-7 20 -16 39 -27 54l-291 -518c33 -34 79 -51 137 -51zM287 765h-7c-6 0 -9 4 -4 10l80 103c7 8 10 10 17 10h15c6 0 8 -5 4 -10l-87 -103c-8 -9 -10 -10 -18 -10z" />
      <glyph d="M885 0h-374c-6 0 -10 4 -10 10v106h-1c-36 -87 -109 -126 -199 -126c-107 0 -179 50 -211 148c-10 30 -20 78 -20 202s10 172 20 202c32 98 104 148 211 148c90 0 163 -39 199 -126h1v106c0 6 4 10 10 10h374c6 0 10 -4 10 -10v-9c0 -6 -4 -10 -10 -10h-347
c-4 0 -6 -2 -6 -6v-279c0 -4 2 -6 6 -6h300c6 0 10 -4 10 -10v-9c0 -6 -4 -10 -10 -10h-300c-4 0 -6 -2 -6 -6v-290c0 -4 2 -6 6 -6h347c6 0 10 -4 10 -10v-9c0 -6 -4 -10 -10 -10zM301 19c92 0 153 43 181 127c9 27 19 73 19 194s-10 167 -19 194c-28 84 -89 127 -181 127
s-153 -43 -181 -127c-9 -27 -19 -73 -19 -194s10 -167 19 -194c28 -84 89 -127 181 -127z" />
      <glyph d="M530 0h-17c-6 0 -9 2 -12 9l-149 310c-9 -1 -18 -1 -27 -1h-186c-4 0 -6 -2 -6 -6v-302c0 -6 -4 -10 -10 -10h-11c-6 0 -10 4 -10 10v660c0 6 4 10 10 10h213c129 0 203 -66 203 -181c0 -96 -52 -158 -145 -176l152 -313c3 -5 1 -10 -5 -10zM325 347
c113 0 172 53 172 152s-59 152 -172 152h-186c-4 0 -6 -2 -6 -6v-292c0 -4 2 -6 6 -6h186zM270 765h-7c-6 0 -9 4 -4 10l80 103c7 8 10 10 17 10h15c6 0 8 -5 4 -10l-87 -103c-8 -9 -10 -10 -18 -10z" />
      <glyph d="M530 0h-17c-6 0 -9 2 -12 9l-149 310c-9 -1 -18 -1 -27 -1h-186c-4 0 -6 -2 -6 -6v-302c0 -6 -4 -10 -10 -10h-11c-6 0 -10 4 -10 10v660c0 6 4 10 10 10h213c129 0 203 -66 203 -181c0 -96 -52 -158 -145 -176l152 -313c3 -5 1 -10 -5 -10zM325 347
c113 0 172 53 172 152s-59 152 -172 152h-186c-4 0 -6 -2 -6 -6v-292c0 -4 2 -6 6 -6h186zM290 755h-8c-6 0 -9 2 -14 9l-87 121c-4 5 -2 10 4 10h8c7 0 10 -2 16 -10l76 -98h2l76 98c6 8 9 10 16 10h8c6 0 8 -5 4 -10l-87 -121c-5 -7 -8 -9 -14 -9z" />
      <glyph d="M530 0h-17c-6 0 -9 2 -12 9l-149 310c-9 -1 -18 -1 -27 -1h-186c-4 0 -6 -2 -6 -6v-302c0 -6 -4 -10 -10 -10h-11c-6 0 -10 4 -10 10v660c0 6 4 10 10 10h213c129 0 203 -66 203 -181c0 -96 -52 -158 -145 -176l152 -313c3 -5 1 -10 -5 -10zM325 347
c113 0 172 53 172 152s-59 152 -172 152h-186c-4 0 -6 -2 -6 -6v-292c0 -4 2 -6 6 -6h186zM298 -183c-6 0 -7 3 -7 9v109c0 6 3 10 9 10h11c6 0 9 -4 9 -10v-64c0 -10 -1 -18 -5 -28l-7 -19c-2 -4 -5 -7 -10 -7z" />
      <glyph d="M291 -10c-85 0 -171 37 -214 74c-4 4 -5 10 -1 14l8 9c4 5 9 5 14 1c46 -36 119 -69 199 -69c121 0 195 62 195 159c0 76 -39 132 -177 150l-30 4c-135 18 -192 81 -192 173c0 116 81 185 206 185c71 0 139 -22 183 -52c5 -3 6 -9 2 -14l-7 -9c-4 -5 -9 -5 -14 -2
c-54 32 -108 48 -166 48c-110 0 -173 -62 -173 -153c0 -80 47 -132 178 -149l30 -4c135 -18 191 -79 191 -174c0 -113 -79 -191 -232 -191zM281 765h-7c-6 0 -9 4 -4 10l80 103c7 8 10 10 17 10h15c6 0 8 -5 4 -10l-87 -103c-8 -9 -10 -10 -18 -10z" />
      <glyph d="M291 -10c-85 0 -171 37 -214 74c-4 4 -5 10 -1 14l8 9c4 5 9 5 14 1c46 -36 119 -69 199 -69c121 0 195 62 195 159c0 76 -39 132 -177 150l-30 4c-135 18 -192 81 -192 173c0 116 81 185 206 185c71 0 139 -22 183 -52c5 -3 6 -9 2 -14l-7 -9c-4 -5 -9 -5 -14 -2
c-54 32 -108 48 -166 48c-110 0 -173 -62 -173 -153c0 -80 47 -132 178 -149l30 -4c135 -18 191 -79 191 -174c0 -113 -79 -191 -232 -191zM399 755h-8c-7 0 -10 2 -16 10l-76 98h-2l-76 -98c-6 -8 -9 -10 -16 -10h-8c-6 0 -8 5 -4 10l87 121c5 7 8 9 14 9h8c6 0 9 -2 14 -9
l87 -121c4 -5 2 -10 -4 -10z" />
      <glyph d="M291 -10c-85 0 -171 37 -214 74c-4 4 -5 10 -1 14l8 9c4 5 9 5 14 1c46 -36 119 -69 199 -69c121 0 195 62 195 159c0 76 -39 132 -177 150l-30 4c-135 18 -192 81 -192 173c0 116 81 185 206 185c71 0 139 -22 183 -52c5 -3 6 -9 2 -14l-7 -9c-4 -5 -9 -5 -14 -2
c-54 32 -108 48 -166 48c-110 0 -173 -62 -173 -153c0 -80 47 -132 178 -149l30 -4c135 -18 191 -79 191 -174c0 -113 -79 -191 -232 -191zM302 755h-8c-6 0 -9 2 -14 9l-87 121c-4 5 -2 10 4 10h8c7 0 10 -2 16 -10l76 -98h2l76 98c6 8 9 10 16 10h8c6 0 8 -5 4 -10
l-87 -121c-5 -7 -8 -9 -14 -9z" />
      <glyph d="M259 -145h-11c-6 0 -9 4 -7 10l48 125c-85 1 -170 37 -212 74c-4 4 -5 10 -1 14l8 9c4 5 9 5 14 1c46 -36 119 -69 199 -69c121 0 195 62 195 159c0 76 -39 132 -177 150l-30 4c-135 18 -192 81 -192 173c0 116 81 185 206 185c71 0 139 -22 183 -52c5 -3 6 -9 2 -14
l-7 -9c-4 -5 -9 -5 -14 -2c-54 32 -108 48 -166 48c-110 0 -173 -62 -173 -153c0 -80 47 -132 178 -149l30 -4c135 -18 191 -79 191 -174c0 -106 -70 -181 -205 -190l-43 -126c-3 -8 -7 -10 -16 -10z" />
      <glyph d="M291 -10c-85 0 -171 37 -214 74c-4 4 -5 10 -1 14l8 9c4 5 9 5 14 1c46 -36 119 -69 199 -69c121 0 195 62 195 159c0 76 -39 132 -177 150l-30 4c-135 18 -192 81 -192 173c0 116 81 185 206 185c71 0 139 -22 183 -52c5 -3 6 -9 2 -14l-7 -9c-4 -5 -9 -5 -14 -2
c-54 32 -108 48 -166 48c-110 0 -173 -62 -173 -153c0 -80 47 -132 178 -149l30 -4c135 -18 191 -79 191 -174c0 -113 -79 -191 -232 -191zM293 -183c-6 0 -7 3 -7 9v109c0 6 3 10 9 10h11c6 0 9 -4 9 -10v-64c0 -10 -1 -18 -5 -28l-7 -19c-2 -4 -5 -7 -10 -7z" />
      <glyph d="M262 0h-11c-6 0 -10 4 -10 10v635c0 4 -2 6 -6 6h-203c-6 0 -10 4 -10 10v9c0 6 4 10 10 10h449c6 0 10 -4 10 -10v-9c0 -6 -4 -10 -10 -10h-203c-4 0 -6 -2 -6 -6v-635c0 -6 -4 -10 -10 -10zM260 755h-8c-6 0 -9 2 -14 9l-87 121c-4 5 -2 10 4 10h8c7 0 10 -2 16 -10
l76 -98h2l76 98c6 8 9 10 16 10h8c6 0 8 -5 4 -10l-87 -121c-5 -7 -8 -9 -14 -9z" />
      <glyph d="M262 0h-11c-6 0 -10 4 -10 10v635c0 4 -2 6 -6 6h-203c-6 0 -10 4 -10 10v9c0 6 4 10 10 10h449c6 0 10 -4 10 -10v-9c0 -6 -4 -10 -10 -10h-203c-4 0 -6 -2 -6 -6v-635c0 -6 -4 -10 -10 -10zM248 -183c-6 0 -7 3 -7 9v109c0 6 3 10 9 10h11c6 0 9 -4 9 -10v-64
c0 -10 -1 -18 -5 -28l-7 -19c-2 -4 -5 -7 -10 -7z" />
      <glyph d="M262 0h-11c-6 0 -10 4 -10 10v635c0 4 -2 6 -6 6h-203c-6 0 -10 4 -10 10v9c0 6 4 10 10 10h449c6 0 10 -4 10 -10v-9c0 -6 -4 -10 -10 -10h-203c-4 0 -6 -2 -6 -6v-635c0 -6 -4 -10 -10 -10zM248 -183c-6 0 -7 3 -7 9v109c0 6 3 10 9 10h11c6 0 9 -4 9 -10v-64
c0 -10 -1 -18 -5 -28l-7 -19c-2 -4 -5 -7 -10 -7z" />
      <glyph d="M262 0h-11c-6 0 -10 4 -10 10v415c0 4 -2 6 -6 6h-107c-6 0 -10 4 -10 10v8c0 6 4 10 10 10h107c4 0 6 2 6 6v180c0 4 -2 6 -6 6h-203c-6 0 -10 4 -10 10v9c0 6 4 10 10 10h449c6 0 10 -4 10 -10v-9c0 -6 -4 -10 -10 -10h-203c-4 0 -6 -2 -6 -6v-180c0 -4 2 -6 6 -6h107
c6 0 10 -4 10 -10v-8c0 -6 -4 -10 -10 -10h-107c-4 0 -6 -2 -6 -6v-415c0 -6 -4 -10 -10 -10z" />
      <glyph d="M123 0h-11c-6 0 -10 4 -10 10v660c0 6 4 10 10 10h11c6 0 10 -4 10 -10v-137c0 -4 2 -6 6 -6h188c129 0 203 -69 203 -184s-74 -184 -203 -184h-188c-4 0 -6 -2 -6 -6v-143c0 -6 -4 -10 -10 -10zM327 188c113 0 172 56 172 155s-59 155 -172 155h-188c-4 0 -6 -2 -6 -6
v-298c0 -4 2 -6 6 -6h188z" />
      <glyph d="M316 -10c-143 0 -222 78 -222 243v437c0 6 4 10 10 10h11c6 0 10 -4 10 -10v-438c0 -143 68 -213 191 -213c124 0 191 70 191 213v438c0 6 4 10 10 10h11c6 0 10 -4 10 -10v-437c0 -163 -79 -243 -222 -243zM336 765h-7c-8 0 -10 1 -18 10l-87 103c-4 5 -2 10 4 10h15
c7 0 10 -2 17 -10l80 -103c5 -6 2 -10 -4 -10z" />
      <glyph d="M316 -10c-143 0 -222 78 -222 243v437c0 6 4 10 10 10h11c6 0 10 -4 10 -10v-438c0 -143 68 -213 191 -213c124 0 191 70 191 213v438c0 6 4 10 10 10h11c6 0 10 -4 10 -10v-437c0 -163 -79 -243 -222 -243zM300 765h-7c-6 0 -9 4 -4 10l80 103c7 8 10 10 17 10h15
c6 0 8 -5 4 -10l-87 -103c-8 -9 -10 -10 -18 -10z" />
      <glyph d="M316 -10c-143 0 -222 78 -222 243v437c0 6 4 10 10 10h11c6 0 10 -4 10 -10v-438c0 -143 68 -213 191 -213c124 0 191 70 191 213v438c0 6 4 10 10 10h11c6 0 10 -4 10 -10v-437c0 -163 -79 -243 -222 -243zM417 755h-8c-7 0 -10 2 -16 10l-76 98h-2l-76 -98
c-6 -8 -9 -10 -16 -10h-8c-6 0 -8 5 -4 10l87 121c5 7 8 9 14 9h8c6 0 9 -2 14 -9l87 -121c4 -5 2 -10 -4 -10z" />
      <glyph d="M316 -10c-143 0 -222 78 -222 243v437c0 6 4 10 10 10h11c6 0 10 -4 10 -10v-438c0 -143 68 -213 191 -213c124 0 191 70 191 213v438c0 6 4 10 10 10h11c6 0 10 -4 10 -10v-437c0 -163 -79 -243 -222 -243zM367 794c-23 0 -41 11 -57 21c-14 9 -29 18 -46 18
c-20 0 -36 -13 -55 -34c-4 -4 -8 -2 -8 3v15c0 5 1 8 7 14c15 16 34 28 57 28s42 -11 57 -21s29 -18 46 -18c20 0 36 13 55 34c4 4 8 2 8 -3v-15c0 -5 -1 -8 -7 -14c-15 -16 -34 -28 -57 -28z" />
      <glyph d="M316 -10c-143 0 -222 78 -222 243v437c0 6 4 10 10 10h11c6 0 10 -4 10 -10v-438c0 -143 68 -213 191 -213c124 0 191 70 191 213v438c0 6 4 10 10 10h11c6 0 10 -4 10 -10v-437c0 -163 -79 -243 -222 -243zM428 795h-24c-6 0 -10 4 -10 10v40c0 6 4 10 10 10h24
c6 0 10 -4 10 -10v-40c0 -6 -4 -10 -10 -10zM228 795h-24c-6 0 -10 4 -10 10v40c0 6 4 10 10 10h24c6 0 10 -4 10 -10v-40c0 -6 -4 -10 -10 -10z" />
      <glyph d="M316 -10c-143 0 -222 78 -222 243v437c0 6 4 10 10 10h11c6 0 10 -4 10 -10v-438c0 -143 68 -213 191 -213c124 0 191 70 191 213v438c0 6 4 10 10 10h11c6 0 10 -4 10 -10v-437c0 -163 -79 -243 -222 -243zM432 810h-232c-6 0 -10 4 -10 10v8c0 6 4 10 10 10h232
c6 0 10 -4 10 -10v-8c0 -6 -4 -10 -10 -10z" />
      <glyph d="M316 -10c-143 0 -222 78 -222 243v437c0 6 4 10 10 10h11c6 0 10 -4 10 -10v-438c0 -143 68 -213 191 -213c124 0 191 70 191 213v438c0 6 4 10 10 10h11c6 0 10 -4 10 -10v-437c0 -163 -79 -243 -222 -243zM316 775c-61 0 -106 38 -116 94c-1 6 3 10 9 10h7
c7 0 9 -4 11 -10c12 -43 43 -67 89 -67s78 24 90 67c2 6 4 10 11 10h6c6 0 10 -4 9 -10c-10 -56 -55 -94 -116 -94z" />
      <glyph d="M316 -10c-143 0 -222 78 -222 243v437c0 6 4 10 10 10h11c6 0 10 -4 10 -10v-438c0 -143 68 -213 191 -213c124 0 191 70 191 213v438c0 6 4 10 10 10h11c6 0 10 -4 10 -10v-437c0 -163 -79 -243 -222 -243zM316 746c-48 0 -83 35 -83 83s35 83 83 83s83 -35 83 -83
s-35 -83 -83 -83zM316 772c33 0 56 24 56 57s-23 57 -56 57s-56 -24 -56 -57s23 -57 56 -57z" />
      <glyph d="M316 -10c-143 0 -222 78 -222 243v437c0 6 4 10 10 10h11c6 0 10 -4 10 -10v-438c0 -143 68 -213 191 -213c124 0 191 70 191 213v438c0 6 4 10 10 10h11c6 0 10 -4 10 -10v-437c0 -163 -79 -243 -222 -243zM369 765h-8c-6 0 -8 4 -4 10l68 103c5 7 8 10 16 10h14
c6 0 8 -5 4 -10l-75 -104c-5 -7 -8 -9 -15 -9zM259 765h-8c-6 0 -8 4 -4 10l68 103c5 7 8 10 16 10h14c6 0 8 -5 4 -10l-75 -104c-5 -7 -8 -9 -15 -9z" />
      <glyph d="M317 -162c-37 0 -59 21 -59 57c0 24 9 48 50 95c-136 3 -214 78 -214 243v437c0 6 4 10 10 10h11c6 0 10 -4 10 -10v-438c0 -143 68 -213 191 -213c124 0 191 70 191 213v438c0 6 4 10 10 10h11c6 0 10 -4 10 -10v-437c0 -149 -66 -233 -197 -242
c-48 -56 -53 -73 -53 -94c0 -19 12 -31 31 -31c10 0 20 5 30 11c5 3 11 2 14 -3l3 -5c3 -5 2 -10 -3 -14c-9 -8 -28 -17 -46 -17z" />
      <glyph d="M604 0h-14c-6 0 -9 3 -11 10l-171 604h-2l-172 -604c-2 -7 -5 -10 -11 -10h-14c-6 0 -10 4 -11 10l-159 659c-2 7 1 11 8 11h11c9 0 12 -2 14 -10l145 -611h2l169 611c2 7 5 10 12 10h13c7 0 10 -3 12 -10l171 -611h2l143 611c2 8 5 10 14 10h11c7 0 10 -4 8 -11
l-159 -659c-1 -6 -5 -10 -11 -10zM409 765h-7c-6 0 -9 4 -4 10l80 103c7 8 10 10 17 10h15c6 0 8 -5 4 -10l-87 -103c-8 -9 -10 -10 -18 -10z" />
      <glyph d="M604 0h-14c-6 0 -9 3 -11 10l-171 604h-2l-172 -604c-2 -7 -5 -10 -11 -10h-14c-6 0 -10 4 -11 10l-159 659c-2 7 1 11 8 11h11c9 0 12 -2 14 -10l145 -611h2l169 611c2 7 5 10 12 10h13c7 0 10 -3 12 -10l171 -611h2l143 611c2 8 5 10 14 10h11c7 0 10 -4 8 -11
l-159 -659c-1 -6 -5 -10 -11 -10zM507 755h-8c-7 0 -10 2 -16 10l-76 98h-2l-76 -98c-6 -8 -9 -10 -16 -10h-8c-6 0 -8 5 -4 10l87 121c5 7 8 9 14 9h8c6 0 9 -2 14 -9l87 -121c4 -5 2 -10 -4 -10z" />
      <glyph d="M604 0h-14c-6 0 -9 3 -11 10l-171 604h-2l-172 -604c-2 -7 -5 -10 -11 -10h-14c-6 0 -10 4 -11 10l-159 659c-2 7 1 11 8 11h11c9 0 12 -2 14 -10l145 -611h2l169 611c2 7 5 10 12 10h13c7 0 10 -3 12 -10l171 -611h2l143 611c2 8 5 10 14 10h11c7 0 10 -4 8 -11
l-159 -659c-1 -6 -5 -10 -11 -10zM518 795h-24c-6 0 -10 4 -10 10v40c0 6 4 10 10 10h24c6 0 10 -4 10 -10v-40c0 -6 -4 -10 -10 -10zM318 795h-24c-6 0 -10 4 -10 10v40c0 6 4 10 10 10h24c6 0 10 -4 10 -10v-40c0 -6 -4 -10 -10 -10z" />
      <glyph d="M604 0h-14c-6 0 -9 3 -11 10l-171 604h-2l-172 -604c-2 -7 -5 -10 -11 -10h-14c-6 0 -10 4 -11 10l-159 659c-2 7 1 11 8 11h11c9 0 12 -2 14 -10l145 -611h2l169 611c2 7 5 10 12 10h13c7 0 10 -3 12 -10l171 -611h2l143 611c2 8 5 10 14 10h11c7 0 10 -4 8 -11
l-159 -659c-1 -6 -5 -10 -11 -10zM413 765h-7c-8 0 -10 1 -18 10l-87 103c-4 5 -2 10 4 10h15c7 0 10 -2 17 -10l80 -103c5 -6 2 -10 -4 -10z" />
      <glyph d="M259 0h-11c-6 0 -10 4 -10 10v269l-207 389c-3 6 0 12 7 12h12c8 0 11 -2 15 -10l189 -352h2l185 352c4 8 7 10 15 10h12c7 0 10 -6 7 -12l-206 -389v-269c0 -6 -4 -10 -10 -10zM246 765h-7c-6 0 -9 4 -4 10l80 103c7 8 10 10 17 10h15c6 0 8 -5 4 -10l-87 -103
c-8 -9 -10 -10 -18 -10z" />
      <glyph d="M259 0h-11c-6 0 -10 4 -10 10v269l-207 389c-3 6 0 12 7 12h12c8 0 11 -2 15 -10l189 -352h2l185 352c4 8 7 10 15 10h12c7 0 10 -6 7 -12l-206 -389v-269c0 -6 -4 -10 -10 -10zM354 755h-8c-7 0 -10 2 -16 10l-76 98h-2l-76 -98c-6 -8 -9 -10 -16 -10h-8
c-6 0 -8 5 -4 10l87 121c5 7 8 9 14 9h8c6 0 9 -2 14 -9l87 -121c4 -5 2 -10 -4 -10z" />
      <glyph d="M259 0h-11c-6 0 -10 4 -10 10v269l-207 389c-3 6 0 12 7 12h12c8 0 11 -2 15 -10l189 -352h2l185 352c4 8 7 10 15 10h12c7 0 10 -6 7 -12l-206 -389v-269c0 -6 -4 -10 -10 -10zM365 795h-24c-6 0 -10 4 -10 10v40c0 6 4 10 10 10h24c6 0 10 -4 10 -10v-40
c0 -6 -4 -10 -10 -10zM165 795h-24c-6 0 -10 4 -10 10v40c0 6 4 10 10 10h24c6 0 10 -4 10 -10v-40c0 -6 -4 -10 -10 -10z" />
      <glyph d="M259 0h-11c-6 0 -10 4 -10 10v269l-207 389c-3 6 0 12 7 12h12c8 0 11 -2 15 -10l189 -352h2l185 352c4 8 7 10 15 10h12c7 0 10 -6 7 -12l-206 -389v-269c0 -6 -4 -10 -10 -10zM273 765h-7c-8 0 -10 1 -18 10l-87 103c-4 5 -2 10 4 10h15c7 0 10 -2 17 -10l80 -103
c5 -6 2 -10 -4 -10z" />
      <glyph d="M475 0h-408c-6 0 -10 4 -10 10v9c0 5 2 9 6 15l383 616v1h-365c-6 0 -10 4 -10 10v9c0 6 4 10 10 10h394c6 0 10 -4 10 -10v-9c0 -5 -1 -8 -5 -14l-384 -617v-1h379c6 0 10 -4 10 -10v-9c0 -6 -4 -10 -10 -10zM257 765h-7c-6 0 -9 4 -4 10l80 103c7 8 10 10 17 10h15
c6 0 8 -5 4 -10l-87 -103c-8 -9 -10 -10 -18 -10z" />
      <glyph d="M475 0h-408c-6 0 -10 4 -10 10v9c0 5 2 9 6 15l383 616v1h-365c-6 0 -10 4 -10 10v9c0 6 4 10 10 10h394c6 0 10 -4 10 -10v-9c0 -5 -1 -8 -5 -14l-384 -617v-1h379c6 0 10 -4 10 -10v-9c0 -6 -4 -10 -10 -10zM279 755h-8c-6 0 -9 2 -14 9l-87 121c-4 5 -2 10 4 10h8
c7 0 10 -2 16 -10l76 -98h2l76 98c6 8 9 10 16 10h8c6 0 8 -5 4 -10l-87 -121c-5 -7 -8 -9 -14 -9z" />
      <glyph d="M475 0h-408c-6 0 -10 4 -10 10v9c0 5 2 9 6 15l383 616v1h-365c-6 0 -10 4 -10 10v9c0 6 4 10 10 10h394c6 0 10 -4 10 -10v-9c0 -5 -1 -8 -5 -14l-384 -617v-1h379c6 0 10 -4 10 -10v-9c0 -6 -4 -10 -10 -10zM287 795h-24c-6 0 -10 4 -10 10v40c0 6 4 10 10 10h24
c6 0 10 -4 10 -10v-40c0 -6 -4 -10 -10 -10z" />
      <glyph d="M405 0h-10c-6 0 -10 4 -10 10v57h-1c-17 -43 -70 -77 -153 -77c-99 0 -159 49 -159 138c0 90 62 136 176 136h131c4 0 6 2 6 6v61c0 90 -28 125 -132 125c-64 0 -99 -14 -124 -38c-5 -5 -10 -5 -14 -2l-7 6c-6 5 -5 10 -1 14c29 30 77 48 146 48c114 0 162 -36 162 -153
v-321c0 -6 -4 -10 -10 -10zM235 18c88 0 150 51 150 122v90c0 4 -2 6 -6 6h-129c-104 0 -148 -36 -148 -108c0 -70 48 -110 133 -110zM299 560h-7c-8 0 -11 2 -17 10l-85 120c-4 5 -1 10 5 10h15c8 0 12 -3 16 -10l78 -120c4 -6 1 -10 -5 -10z" />
      <glyph d="M405 0h-10c-6 0 -10 4 -10 10v57h-1c-17 -43 -70 -77 -153 -77c-99 0 -159 49 -159 138c0 90 62 136 176 136h131c4 0 6 2 6 6v61c0 90 -28 125 -132 125c-64 0 -99 -14 -124 -38c-5 -5 -10 -5 -14 -2l-7 6c-6 5 -5 10 -1 14c29 30 77 48 146 48c114 0 162 -36 162 -153
v-321c0 -6 -4 -10 -10 -10zM235 18c88 0 150 51 150 122v90c0 4 -2 6 -6 6h-129c-104 0 -148 -36 -148 -108c0 -70 48 -110 133 -110zM252 560h-7c-6 0 -9 4 -5 10l78 120c4 7 8 10 16 10h15c6 0 9 -5 5 -10l-85 -120c-6 -8 -9 -10 -17 -10z" />
      <glyph d="M405 0h-10c-6 0 -10 4 -10 10v57h-1c-17 -43 -70 -77 -153 -77c-99 0 -159 49 -159 138c0 90 62 136 176 136h131c4 0 6 2 6 6v61c0 90 -28 125 -132 125c-64 0 -99 -14 -124 -38c-5 -5 -10 -5 -14 -2l-7 6c-6 5 -5 10 -1 14c29 30 77 48 146 48c114 0 162 -36 162 -153
v-321c0 -6 -4 -10 -10 -10zM235 18c88 0 150 51 150 122v90c0 4 -2 6 -6 6h-129c-104 0 -148 -36 -148 -108c0 -70 48 -110 133 -110zM355 560h-8c-7 0 -10 2 -16 10l-76 98h-2l-76 -98c-6 -8 -9 -10 -16 -10h-8c-6 0 -8 5 -4 10l87 121c5 7 8 9 14 9h8c6 0 9 -2 14 -9
l87 -121c4 -5 2 -10 -4 -10z" />
      <glyph d="M405 0h-10c-6 0 -10 4 -10 10v57h-1c-17 -43 -70 -77 -153 -77c-99 0 -159 49 -159 138c0 90 62 136 176 136h131c4 0 6 2 6 6v61c0 90 -28 125 -132 125c-64 0 -99 -14 -124 -38c-5 -5 -10 -5 -14 -2l-7 6c-6 5 -5 10 -1 14c29 30 77 48 146 48c114 0 162 -36 162 -153
v-321c0 -6 -4 -10 -10 -10zM235 18c88 0 150 51 150 122v90c0 4 -2 6 -6 6h-129c-104 0 -148 -36 -148 -108c0 -70 48 -110 133 -110zM305 613c-23 0 -41 11 -57 21c-14 9 -29 18 -46 18c-20 0 -36 -13 -55 -34c-4 -4 -8 -2 -8 3v15c0 5 1 8 7 14c15 16 34 28 57 28
s42 -11 57 -21s29 -18 46 -18c20 0 36 13 55 34c4 4 8 2 8 -3v-15c0 -5 -1 -8 -7 -14c-15 -16 -34 -28 -57 -28z" />
      <glyph d="M405 0h-10c-6 0 -10 4 -10 10v57h-1c-17 -43 -70 -77 -153 -77c-99 0 -159 49 -159 138c0 90 62 136 176 136h131c4 0 6 2 6 6v61c0 90 -28 125 -132 125c-64 0 -99 -14 -124 -38c-5 -5 -10 -5 -14 -2l-7 6c-6 5 -5 10 -1 14c29 30 77 48 146 48c114 0 162 -36 162 -153
v-321c0 -6 -4 -10 -10 -10zM235 18c88 0 150 51 150 122v90c0 4 -2 6 -6 6h-129c-104 0 -148 -36 -148 -108c0 -70 48 -110 133 -110zM366 620h-24c-6 0 -10 4 -10 10v40c0 6 4 10 10 10h24c6 0 10 -4 10 -10v-40c0 -6 -4 -10 -10 -10zM166 620h-24c-6 0 -10 4 -10 10v40
c0 6 4 10 10 10h24c6 0 10 -4 10 -10v-40c0 -6 -4 -10 -10 -10z" />
      <glyph d="M405 0h-10c-6 0 -10 4 -10 10v57h-1c-17 -43 -70 -77 -153 -77c-99 0 -159 49 -159 138c0 90 62 136 176 136h131c4 0 6 2 6 6v61c0 90 -28 125 -132 125c-64 0 -99 -14 -124 -38c-5 -5 -10 -5 -14 -2l-7 6c-6 5 -5 10 -1 14c29 30 77 48 146 48c114 0 162 -36 162 -153
v-321c0 -6 -4 -10 -10 -10zM235 18c88 0 150 51 150 122v90c0 4 -2 6 -6 6h-129c-104 0 -148 -36 -148 -108c0 -70 48 -110 133 -110zM370 634h-232c-6 0 -10 4 -10 10v8c0 6 4 10 10 10h232c6 0 10 -4 10 -10v-8c0 -6 -4 -10 -10 -10z" />
      <glyph d="M405 0h-10c-6 0 -10 4 -10 10v57h-1c-17 -43 -70 -77 -153 -77c-99 0 -159 49 -159 138c0 90 62 136 176 136h131c4 0 6 2 6 6v61c0 90 -28 125 -132 125c-64 0 -99 -14 -124 -38c-5 -5 -10 -5 -14 -2l-7 6c-6 5 -5 10 -1 14c29 30 77 48 146 48c114 0 162 -36 162 -153
v-321c0 -6 -4 -10 -10 -10zM235 18c88 0 150 51 150 122v90c0 4 -2 6 -6 6h-129c-104 0 -148 -36 -148 -108c0 -70 48 -110 133 -110zM254 579c-61 0 -106 38 -116 94c-1 6 3 10 9 10h7c7 0 9 -4 11 -10c12 -43 43 -67 89 -67s78 24 90 67c2 6 4 10 11 10h6c6 0 10 -4 9 -10
c-10 -56 -55 -94 -116 -94z" />
      <glyph d="M405 0h-10c-6 0 -10 4 -10 10v57h-1c-17 -43 -70 -77 -153 -77c-99 0 -159 49 -159 138c0 90 62 136 176 136h131c4 0 6 2 6 6v61c0 90 -28 125 -132 125c-64 0 -99 -14 -124 -38c-5 -5 -10 -5 -14 -2l-7 6c-6 5 -5 10 -1 14c29 30 77 48 146 48c114 0 162 -36 162 -153
v-321c0 -6 -4 -10 -10 -10zM235 18c88 0 150 51 150 122v90c0 4 -2 6 -6 6h-129c-104 0 -148 -36 -148 -108c0 -70 48 -110 133 -110zM256 546c-48 0 -83 35 -83 83s35 83 83 83s83 -35 83 -83s-35 -83 -83 -83zM256 572c33 0 56 24 56 57s-23 57 -56 57s-56 -24 -56 -57
s23 -57 56 -57z" />
      <glyph d="M253 765h-7c-6 0 -9 4 -4 10l80 103c7 8 10 10 17 10h15c6 0 8 -5 4 -10l-87 -103c-8 -9 -10 -10 -18 -10zM405 0h-10c-6 0 -10 4 -10 10v57h-1c-17 -43 -70 -77 -153 -77c-99 0 -159 49 -159 138c0 90 62 136 176 136h131c4 0 6 2 6 6v61c0 90 -28 125 -132 125
c-64 0 -99 -14 -124 -38c-5 -5 -10 -5 -14 -2l-7 6c-6 5 -5 10 -1 14c29 30 77 48 146 48c114 0 162 -36 162 -153v-321c0 -6 -4 -10 -10 -10zM235 18c88 0 150 51 150 122v90c0 4 -2 6 -6 6h-129c-104 0 -148 -36 -148 -108c0 -70 48 -110 133 -110zM256 546
c-48 0 -83 35 -83 83s35 83 83 83s83 -35 83 -83s-35 -83 -83 -83zM256 572c33 0 56 24 56 57s-23 57 -56 57s-56 -24 -56 -57s23 -57 56 -57z" />
      <glyph d="M385 10v57h-1c-17 -43 -70 -77 -153 -77c-99 0 -159 49 -159 138c0 90 62 136 176 136h131c4 0 6 2 6 6v61c0 90 -28 125 -132 125c-64 0 -99 -14 -124 -38c-5 -5 -10 -5 -14 -2l-7 6c-6 5 -5 10 -1 14c29 30 77 48 146 48c114 0 162 -36 162 -153v-321
c0 -5 -1 -7 -5 -10c-74 -59 -83 -82 -83 -103c0 -19 12 -31 31 -31c10 0 20 5 30 11c5 3 11 2 14 -3l3 -5c3 -5 2 -10 -3 -14c-9 -8 -28 -17 -46 -17c-37 0 -59 21 -59 57c0 29 15 60 88 115zM235 18c88 0 150 51 150 122v90c0 4 -2 6 -6 6h-129c-104 0 -148 -36 -148 -108
c0 -70 48 -110 133 -110z" />
      <glyph d="M573 -10c-90 0 -141 44 -167 103h-1c-23 -62 -76 -103 -174 -103c-99 0 -159 49 -159 138c0 90 62 136 176 136h131c4 0 6 2 6 6v61c0 90 -28 125 -132 125c-64 0 -99 -14 -124 -38c-5 -5 -10 -5 -14 -2l-7 6c-6 5 -5 10 -1 14c29 30 77 48 146 48c92 0 142 -25 156 -95
h1c31 64 84 95 157 95c81 0 142 -40 168 -120c9 -27 14 -58 14 -118c0 -6 -4 -10 -11 -10h-317c-4 0 -6 -3 -6 -7c0 -53 4 -81 12 -107c24 -72 76 -104 146 -104c66 0 114 29 143 69c4 5 9 6 14 2l6 -5c5 -4 5 -9 1 -14c-33 -47 -89 -80 -164 -80zM713 264c4 0 6 2 6 6
c0 34 -4 60 -11 83c-22 69 -72 103 -141 103s-119 -34 -141 -103c-7 -23 -11 -49 -11 -83c0 -4 2 -6 6 -6h292zM235 18c88 0 150 51 150 122v90c0 4 -2 6 -6 6h-129c-104 0 -148 -36 -148 -108c0 -70 48 -110 133 -110z" />
      <glyph d="M573 -10c-90 0 -141 44 -167 103h-1c-23 -62 -76 -103 -174 -103c-99 0 -159 49 -159 138c0 90 62 136 176 136h131c4 0 6 2 6 6v61c0 90 -28 125 -132 125c-64 0 -99 -14 -124 -38c-5 -5 -10 -5 -14 -2l-7 6c-6 5 -5 10 -1 14c29 30 77 48 146 48c92 0 142 -25 156 -95
h1c31 64 84 95 157 95c81 0 142 -40 168 -120c9 -27 14 -58 14 -118c0 -6 -4 -10 -11 -10h-317c-4 0 -6 -3 -6 -7c0 -53 4 -81 12 -107c24 -72 76 -104 146 -104c66 0 114 29 143 69c4 5 9 6 14 2l6 -5c5 -4 5 -9 1 -14c-33 -47 -89 -80 -164 -80zM713 264c4 0 6 2 6 6
c0 34 -4 60 -11 83c-22 69 -72 103 -141 103s-119 -34 -141 -103c-7 -23 -11 -49 -11 -83c0 -4 2 -6 6 -6h292zM235 18c88 0 150 51 150 122v90c0 4 -2 6 -6 6h-129c-104 0 -148 -36 -148 -108c0 -70 48 -110 133 -110zM421 560h-7c-6 0 -9 4 -5 10l78 120c4 7 8 10 16 10
h15c6 0 9 -5 5 -10l-85 -120c-6 -8 -9 -10 -17 -10z" />
      <glyph d="M249 -10c-83 0 -144 45 -168 120c-9 29 -16 68 -16 127s7 98 16 127c24 75 85 120 168 120c75 0 128 -35 157 -96c3 -6 1 -11 -5 -14l-7 -3c-5 -2 -10 -1 -13 4c-28 56 -69 81 -132 81c-69 0 -118 -36 -139 -103c-9 -27 -15 -62 -15 -116s6 -89 15 -116
c21 -67 70 -103 139 -103c63 0 104 25 132 81c3 5 8 6 13 4l7 -3c6 -3 8 -8 5 -14c-29 -61 -82 -96 -157 -96zM238 560h-7c-6 0 -9 4 -5 10l78 120c4 7 8 10 16 10h15c6 0 9 -5 5 -10l-85 -120c-6 -8 -9 -10 -17 -10z" />
      <glyph d="M249 -10c-83 0 -144 45 -168 120c-9 29 -16 68 -16 127s7 98 16 127c24 75 85 120 168 120c75 0 128 -35 157 -96c3 -6 1 -11 -5 -14l-7 -3c-5 -2 -10 -1 -13 4c-28 56 -69 81 -132 81c-69 0 -118 -36 -139 -103c-9 -27 -15 -62 -15 -116s6 -89 15 -116
c21 -67 70 -103 139 -103c63 0 104 25 132 81c3 5 8 6 13 4l7 -3c6 -3 8 -8 5 -14c-29 -61 -82 -96 -157 -96zM352 560h-8c-7 0 -10 2 -16 10l-76 98h-2l-76 -98c-6 -8 -9 -10 -16 -10h-8c-6 0 -8 5 -4 10l87 121c5 7 8 9 14 9h8c6 0 9 -2 14 -9l87 -121c4 -5 2 -10 -4 -10z
" />
      <glyph d="M249 -10c-83 0 -144 45 -168 120c-9 29 -16 68 -16 127s7 98 16 127c24 75 85 120 168 120c75 0 128 -35 157 -96c3 -6 1 -11 -5 -14l-7 -3c-5 -2 -10 -1 -13 4c-28 56 -69 81 -132 81c-69 0 -118 -36 -139 -103c-9 -27 -15 -62 -15 -116s6 -89 15 -116
c21 -67 70 -103 139 -103c63 0 104 25 132 81c3 5 8 6 13 4l7 -3c6 -3 8 -8 5 -14c-29 -61 -82 -96 -157 -96zM254 560h-8c-6 0 -9 2 -14 9l-87 121c-4 5 -2 10 4 10h8c7 0 10 -2 16 -10l76 -98h2l76 98c6 8 9 10 16 10h8c6 0 8 -5 4 -10l-87 -121c-5 -7 -8 -9 -14 -9z" />
      <glyph d="M249 -10c-83 0 -144 45 -168 120c-9 29 -16 68 -16 127s7 98 16 127c24 75 85 120 168 120c75 0 128 -35 157 -96c3 -6 1 -11 -5 -14l-7 -3c-5 -2 -10 -1 -13 4c-28 56 -69 81 -132 81c-69 0 -118 -36 -139 -103c-9 -27 -15 -62 -15 -116s6 -89 15 -116
c21 -67 70 -103 139 -103c63 0 104 25 132 81c3 5 8 6 13 4l7 -3c6 -3 8 -8 5 -14c-29 -61 -82 -96 -157 -96zM262 620h-24c-6 0 -10 4 -10 10v40c0 6 4 10 10 10h24c6 0 10 -4 10 -10v-40c0 -6 -4 -10 -10 -10z" />
      <glyph d="M212 -145h-11c-6 0 -9 4 -7 10l48 125c-80 3 -138 47 -161 120c-9 29 -16 68 -16 127s7 98 16 127c24 75 85 120 168 120c75 0 128 -35 157 -96c3 -6 1 -11 -5 -14l-7 -3c-5 -2 -10 -1 -13 4c-28 56 -69 81 -132 81c-69 0 -118 -36 -139 -103c-9 -27 -15 -62 -15 -116
s6 -89 15 -116c21 -67 70 -103 139 -103c63 0 104 25 132 81c3 5 8 6 13 4l7 -3c6 -3 8 -8 5 -14c-26 -55 -72 -89 -135 -95l-43 -126c-3 -8 -7 -10 -16 -10z" />
      <glyph d="M415 0h-10c-6 0 -10 4 -10 10v69h-1c-23 -51 -66 -89 -151 -89s-137 38 -161 113c-13 40 -17 86 -17 134s4 94 17 134c24 75 76 113 161 113s128 -38 151 -89h1v275c0 6 4 10 10 10h10c6 0 10 -4 10 -10v-660c0 -6 -4 -10 -10 -10zM245 18c66 0 116 31 137 95
c9 28 13 68 13 124s-4 96 -13 124c-21 64 -71 95 -137 95c-69 0 -115 -34 -135 -95c-11 -34 -15 -82 -15 -124s4 -90 15 -124c20 -61 66 -95 135 -95zM487 552c-6 0 -7 3 -7 9v109c0 6 3 10 9 10h11c6 0 9 -4 9 -10v-64c0 -10 -1 -18 -5 -28l-7 -19c-2 -4 -5 -7 -10 -7z" />
      <glyph d="M415 0h-10c-6 0 -10 4 -10 10v69h-1c-23 -51 -66 -89 -151 -89s-137 38 -161 113c-13 40 -17 86 -17 134s4 94 17 134c24 75 76 113 161 113s128 -38 151 -89h1v171c0 4 -2 6 -6 6h-140c-6 0 -10 4 -10 10v7c0 6 4 10 10 10h140c4 0 6 2 6 6v65c0 6 4 10 10 10h10
c6 0 10 -4 10 -10v-65c0 -4 2 -6 6 -6h37c6 0 10 -4 10 -10v-7c0 -6 -4 -10 -10 -10h-37c-4 0 -6 -2 -6 -6v-556c0 -6 -4 -10 -10 -10zM245 18c66 0 116 31 137 95c9 28 13 68 13 124s-4 96 -13 124c-21 64 -71 95 -137 95c-69 0 -115 -34 -135 -95
c-11 -34 -15 -82 -15 -124s4 -90 15 -124c20 -61 66 -95 135 -95z" />
      <glyph d="M358 606l-83 -25l43 -52c88 -105 119 -174 119 -282c0 -70 -6 -106 -16 -137c-25 -76 -86 -120 -170 -120s-145 44 -170 120c-10 31 -16 67 -16 127s6 96 16 127c25 76 86 120 163 120c39 0 66 -9 100 -33h1l-100 121l-96 -29c-7 -2 -13 2 -14 7l-1 6c-1 6 2 10 8 12
l85 25l-65 77c-4 5 -2 10 4 10h17c8 0 12 -4 17 -10l56 -68l95 28c7 2 12 -1 13 -6l1 -6c1 -6 -1 -10 -7 -12zM251 18c69 0 121 37 142 102c9 28 14 61 14 117s-5 86 -15 115c-21 65 -72 104 -141 104s-121 -37 -142 -102c-9 -28 -14 -61 -14 -117s5 -89 14 -117
c21 -65 73 -102 142 -102z" />
      <glyph d="M253 -10c-88 0 -148 41 -174 122c-9 28 -14 60 -14 126c0 65 5 99 14 126c26 79 87 120 168 120s142 -40 168 -120c9 -27 14 -58 14 -118c0 -6 -4 -10 -11 -10h-317c-4 0 -6 -3 -6 -7c0 -53 4 -81 12 -107c24 -72 76 -104 146 -104c66 0 114 29 143 69c4 5 9 6 14 2l6 -5
c5 -4 5 -9 1 -14c-33 -47 -89 -80 -164 -80zM101 264h292c4 0 6 2 6 6c0 34 -4 60 -11 83c-22 69 -72 103 -141 103s-119 -34 -141 -103c-7 -23 -11 -49 -11 -83c0 -4 2 -6 6 -6zM266 560h-7c-8 0 -11 2 -17 10l-85 120c-4 5 -1 10 5 10h15c8 0 12 -3 16 -10l78 -120
c4 -6 1 -10 -5 -10z" />
      <glyph d="M253 -10c-88 0 -148 41 -174 122c-9 28 -14 60 -14 126c0 65 5 99 14 126c26 79 87 120 168 120s142 -40 168 -120c9 -27 14 -58 14 -118c0 -6 -4 -10 -11 -10h-317c-4 0 -6 -3 -6 -7c0 -53 4 -81 12 -107c24 -72 76 -104 146 -104c66 0 114 29 143 69c4 5 9 6 14 2l6 -5
c5 -4 5 -9 1 -14c-33 -47 -89 -80 -164 -80zM101 264h292c4 0 6 2 6 6c0 34 -4 60 -11 83c-22 69 -72 103 -141 103s-119 -34 -141 -103c-7 -23 -11 -49 -11 -83c0 -4 2 -6 6 -6zM238 560h-7c-6 0 -9 4 -5 10l78 120c4 7 8 10 16 10h15c6 0 9 -5 5 -10l-85 -120
c-6 -8 -9 -10 -17 -10z" />
      <glyph d="M253 -10c-88 0 -148 41 -174 122c-9 28 -14 60 -14 126c0 65 5 99 14 126c26 79 87 120 168 120s142 -40 168 -120c9 -27 14 -58 14 -118c0 -6 -4 -10 -11 -10h-317c-4 0 -6 -3 -6 -7c0 -53 4 -81 12 -107c24 -72 76 -104 146 -104c66 0 114 29 143 69c4 5 9 6 14 2l6 -5
c5 -4 5 -9 1 -14c-33 -47 -89 -80 -164 -80zM101 264h292c4 0 6 2 6 6c0 34 -4 60 -11 83c-22 69 -72 103 -141 103s-119 -34 -141 -103c-7 -23 -11 -49 -11 -83c0 -4 2 -6 6 -6zM348 560h-8c-7 0 -10 2 -16 10l-76 98h-2l-76 -98c-6 -8 -9 -10 -16 -10h-8c-6 0 -8 5 -4 10
l87 121c5 7 8 9 14 9h8c6 0 9 -2 14 -9l87 -121c4 -5 2 -10 -4 -10z" />
      <glyph d="M253 -10c-88 0 -148 41 -174 122c-9 28 -14 60 -14 126c0 65 5 99 14 126c26 79 87 120 168 120s142 -40 168 -120c9 -27 14 -58 14 -118c0 -6 -4 -10 -11 -10h-317c-4 0 -6 -3 -6 -7c0 -53 4 -81 12 -107c24 -72 76 -104 146 -104c66 0 114 29 143 69c4 5 9 6 14 2l6 -5
c5 -4 5 -9 1 -14c-33 -47 -89 -80 -164 -80zM101 264h292c4 0 6 2 6 6c0 34 -4 60 -11 83c-22 69 -72 103 -141 103s-119 -34 -141 -103c-7 -23 -11 -49 -11 -83c0 -4 2 -6 6 -6zM251 560h-8c-6 0 -9 2 -14 9l-87 121c-4 5 -2 10 4 10h8c7 0 10 -2 16 -10l76 -98h2l76 98
c6 8 9 10 16 10h8c6 0 8 -5 4 -10l-87 -121c-5 -7 -8 -9 -14 -9z" />
      <glyph d="M253 -10c-88 0 -148 41 -174 122c-9 28 -14 60 -14 126c0 65 5 99 14 126c26 79 87 120 168 120s142 -40 168 -120c9 -27 14 -58 14 -118c0 -6 -4 -10 -11 -10h-317c-4 0 -6 -3 -6 -7c0 -53 4 -81 12 -107c24 -72 76 -104 146 -104c66 0 114 29 143 69c4 5 9 6 14 2l6 -5
c5 -4 5 -9 1 -14c-33 -47 -89 -80 -164 -80zM101 264h292c4 0 6 2 6 6c0 34 -4 60 -11 83c-22 69 -72 103 -141 103s-119 -34 -141 -103c-7 -23 -11 -49 -11 -83c0 -4 2 -6 6 -6zM359 620h-24c-6 0 -10 4 -10 10v40c0 6 4 10 10 10h24c6 0 10 -4 10 -10v-40
c0 -6 -4 -10 -10 -10zM159 620h-24c-6 0 -10 4 -10 10v40c0 6 4 10 10 10h24c6 0 10 -4 10 -10v-40c0 -6 -4 -10 -10 -10z" />
      <glyph d="M253 -10c-88 0 -148 41 -174 122c-9 28 -14 60 -14 126c0 65 5 99 14 126c26 79 87 120 168 120s142 -40 168 -120c9 -27 14 -58 14 -118c0 -6 -4 -10 -11 -10h-317c-4 0 -6 -3 -6 -7c0 -53 4 -81 12 -107c24 -72 76 -104 146 -104c66 0 114 29 143 69c4 5 9 6 14 2l6 -5
c5 -4 5 -9 1 -14c-33 -47 -89 -80 -164 -80zM101 264h292c4 0 6 2 6 6c0 34 -4 60 -11 83c-22 69 -72 103 -141 103s-119 -34 -141 -103c-7 -23 -11 -49 -11 -83c0 -4 2 -6 6 -6zM363 634h-232c-6 0 -10 4 -10 10v8c0 6 4 10 10 10h232c6 0 10 -4 10 -10v-8
c0 -6 -4 -10 -10 -10z" />
      <glyph d="M253 -10c-88 0 -148 41 -174 122c-9 28 -14 60 -14 126c0 65 5 99 14 126c26 79 87 120 168 120s142 -40 168 -120c9 -27 14 -58 14 -118c0 -6 -4 -10 -11 -10h-317c-4 0 -6 -3 -6 -7c0 -53 4 -81 12 -107c24 -72 76 -104 146 -104c66 0 114 29 143 69c4 5 9 6 14 2l6 -5
c5 -4 5 -9 1 -14c-33 -47 -89 -80 -164 -80zM101 264h292c4 0 6 2 6 6c0 34 -4 60 -11 83c-22 69 -72 103 -141 103s-119 -34 -141 -103c-7 -23 -11 -49 -11 -83c0 -4 2 -6 6 -6zM247 579c-61 0 -106 38 -116 94c-1 6 3 10 9 10h7c7 0 9 -4 11 -10c12 -43 43 -67 89 -67
s78 24 90 67c2 6 4 10 11 10h6c6 0 10 -4 9 -10c-10 -56 -55 -94 -116 -94z" />
      <glyph d="M253 -10c-88 0 -148 41 -174 122c-9 28 -14 60 -14 126c0 65 5 99 14 126c26 79 87 120 168 120s142 -40 168 -120c9 -27 14 -58 14 -118c0 -6 -4 -10 -11 -10h-317c-4 0 -6 -3 -6 -7c0 -53 4 -81 12 -107c24 -72 76 -104 146 -104c66 0 114 29 143 69c4 5 9 6 14 2l6 -5
c5 -4 5 -9 1 -14c-33 -47 -89 -80 -164 -80zM101 264h292c4 0 6 2 6 6c0 34 -4 60 -11 83c-22 69 -72 103 -141 103s-119 -34 -141 -103c-7 -23 -11 -49 -11 -83c0 -4 2 -6 6 -6zM259 620h-24c-6 0 -10 4 -10 10v40c0 6 4 10 10 10h24c6 0 10 -4 10 -10v-40
c0 -6 -4 -10 -10 -10z" />
      <glyph d="M330 -162c-37 0 -59 22 -59 57c0 32 16 62 54 106c-22 -7 -46 -11 -72 -11c-88 0 -148 41 -174 122c-9 28 -14 60 -14 126c0 65 5 99 14 126c26 79 87 120 168 120s142 -40 168 -120c9 -27 14 -58 14 -118c0 -6 -4 -10 -11 -10h-317c-4 0 -6 -3 -6 -7
c0 -53 4 -81 12 -107c24 -72 76 -104 146 -104c66 0 114 29 143 69c4 5 9 6 14 2l6 -5c5 -4 5 -9 1 -14c-9 -12 -18 -23 -29 -33c-77 -87 -87 -114 -87 -141c0 -19 12 -30 30 -30c10 0 21 5 31 11c5 3 11 2 14 -3l3 -5c3 -5 2 -10 -3 -14c-9 -8 -28 -17 -46 -17zM393 264
c4 0 6 2 6 6c0 34 -4 60 -11 83c-22 69 -72 103 -141 103s-119 -34 -141 -103c-7 -23 -11 -49 -11 -83c0 -4 2 -6 6 -6h292z" />
      <glyph d="M239 -190c-69 0 -127 31 -150 68c-3 5 -3 11 2 14l8 5c5 3 10 2 14 -3c27 -35 69 -56 126 -56c90 0 148 44 148 161v80h-1c-23 -53 -65 -89 -148 -89c-80 0 -134 42 -157 113c-11 33 -16 75 -16 134s5 101 16 134c23 71 77 113 157 113c83 0 125 -36 148 -89h1v69
c0 6 4 10 10 10h10c6 0 10 -4 10 -10v-465c0 -131 -71 -189 -178 -189zM241 18c59 0 110 25 133 95c10 29 13 65 13 124s-3 95 -13 124c-23 70 -74 95 -133 95c-65 0 -110 -32 -131 -94c-10 -30 -15 -70 -15 -125s5 -95 15 -125c21 -62 66 -94 131 -94zM349 560h-8
c-7 0 -10 2 -16 10l-76 98h-2l-76 -98c-6 -8 -9 -10 -16 -10h-8c-6 0 -8 5 -4 10l87 121c5 7 8 9 14 9h8c6 0 9 -2 14 -9l87 -121c4 -5 2 -10 -4 -10z" />
      <glyph d="M239 -190c-69 0 -127 31 -150 68c-3 5 -3 11 2 14l8 5c5 3 10 2 14 -3c27 -35 69 -56 126 -56c90 0 148 44 148 161v80h-1c-23 -53 -65 -89 -148 -89c-80 0 -134 42 -157 113c-11 33 -16 75 -16 134s5 101 16 134c23 71 77 113 157 113c83 0 125 -36 148 -89h1v69
c0 6 4 10 10 10h10c6 0 10 -4 10 -10v-465c0 -131 -71 -189 -178 -189zM241 18c59 0 110 25 133 95c10 29 13 65 13 124s-3 95 -13 124c-23 70 -74 95 -133 95c-65 0 -110 -32 -131 -94c-10 -30 -15 -70 -15 -125s5 -95 15 -125c21 -62 66 -94 131 -94zM252 579
c-61 0 -106 38 -116 94c-1 6 3 10 9 10h7c7 0 9 -4 11 -10c12 -43 43 -67 89 -67s78 24 90 67c2 6 4 10 11 10h6c6 0 10 -4 9 -10c-10 -56 -55 -94 -116 -94z" />
      <glyph d="M239 -190c-69 0 -127 31 -150 68c-3 5 -3 11 2 14l8 5c5 3 10 2 14 -3c27 -35 69 -56 126 -56c90 0 148 44 148 161v80h-1c-23 -53 -65 -89 -148 -89c-80 0 -134 42 -157 113c-11 33 -16 75 -16 134s5 101 16 134c23 71 77 113 157 113c83 0 125 -36 148 -89h1v69
c0 6 4 10 10 10h10c6 0 10 -4 10 -10v-465c0 -131 -71 -189 -178 -189zM241 18c59 0 110 25 133 95c10 29 13 65 13 124s-3 95 -13 124c-23 70 -74 95 -133 95c-65 0 -110 -32 -131 -94c-10 -30 -15 -70 -15 -125s5 -95 15 -125c21 -62 66 -94 131 -94zM265 620h-24
c-6 0 -10 4 -10 10v40c0 6 4 10 10 10h24c6 0 10 -4 10 -10v-40c0 -6 -4 -10 -10 -10z" />
      <glyph d="M239 -190c-69 0 -127 31 -150 68c-3 5 -3 11 2 14l8 5c5 3 10 2 14 -3c27 -35 69 -56 126 -56c90 0 148 44 148 161v80h-1c-23 -53 -65 -89 -148 -89c-80 0 -134 42 -157 113c-11 33 -16 75 -16 134s5 101 16 134c23 71 77 113 157 113c83 0 125 -36 148 -89h1v69
c0 6 4 10 10 10h10c6 0 10 -4 10 -10v-465c0 -131 -71 -189 -178 -189zM241 18c59 0 110 25 133 95c10 29 13 65 13 124s-3 95 -13 124c-23 70 -74 95 -133 95c-65 0 -110 -32 -131 -94c-10 -30 -15 -70 -15 -125s5 -95 15 -125c21 -62 66 -94 131 -94zM257 700
c6 0 7 -3 7 -9v-109c0 -6 -3 -10 -9 -10h-11c-6 0 -9 4 -9 10v64c0 10 1 18 5 28l7 19c2 4 5 7 10 7z" />
      <glyph d="M434 0h-10c-6 0 -10 4 -10 10v284c0 112 -46 162 -139 162c-79 0 -145 -54 -145 -147v-299c0 -6 -4 -10 -10 -10h-10c-6 0 -10 4 -10 10v660c0 6 4 10 10 10h10c6 0 10 -4 10 -10v-273h1c24 55 78 87 146 87c107 0 167 -61 167 -183v-291c0 -6 -4 -10 -10 -10zM375 755
h-8c-7 0 -10 2 -16 10l-76 98h-2l-76 -98c-6 -8 -9 -10 -16 -10h-8c-6 0 -8 5 -4 10l87 121c5 7 8 9 14 9h8c6 0 9 -2 14 -9l87 -121c4 -5 2 -10 -4 -10z" />
      <glyph d="M434 0h-10c-6 0 -10 4 -10 10v284c0 112 -46 162 -139 162c-79 0 -145 -54 -145 -147v-299c0 -6 -4 -10 -10 -10h-10c-6 0 -10 4 -10 10v556c0 4 -2 6 -6 6h-37c-6 0 -10 4 -10 10v7c0 6 4 10 10 10h37c4 0 6 2 6 6v65c0 6 4 10 10 10h10c6 0 10 -4 10 -10v-65
c0 -4 2 -6 6 -6h140c6 0 10 -4 10 -10v-7c0 -6 -4 -10 -10 -10h-140c-4 0 -6 -2 -6 -6v-169h1c24 55 78 87 146 87c107 0 167 -61 167 -183v-291c0 -6 -4 -10 -10 -10z" />
      <glyph d="M120 0h-10c-6 0 -10 4 -10 10v454c0 6 4 10 10 10h10c6 0 10 -4 10 -10v-454c0 -6 -4 -10 -10 -10z" />
      <glyph d="M120 0h-10c-6 0 -10 4 -10 10v454c0 6 4 10 10 10h10c6 0 10 -4 10 -10v-454c0 -6 -4 -10 -10 -10zM128 560h-7c-8 0 -11 2 -17 10l-85 120c-4 5 -1 10 5 10h15c8 0 12 -3 16 -10l78 -120c4 -6 1 -10 -5 -10z" />
      <glyph d="M120 0h-10c-6 0 -10 4 -10 10v454c0 6 4 10 10 10h10c6 0 10 -4 10 -10v-454c0 -6 -4 -10 -10 -10zM109 560h-7c-6 0 -9 4 -5 10l78 120c4 7 8 10 16 10h15c6 0 9 -5 5 -10l-85 -120c-6 -8 -9 -10 -17 -10z" />
      <glyph d="M120 0h-10c-6 0 -10 4 -10 10v454c0 6 4 10 10 10h10c6 0 10 -4 10 -10v-454c0 -6 -4 -10 -10 -10zM115 579c-61 0 -106 38 -116 94c-1 6 3 10 9 10h7c7 0 9 -4 11 -10c12 -43 43 -67 89 -67s78 24 90 67c2 6 4 10 11 10h6c6 0 10 -4 9 -10c-10 -56 -55 -94 -116 -94z
" />
      <glyph d="M120 0h-10c-6 0 -10 4 -10 10v454c0 6 4 10 10 10h10c6 0 10 -4 10 -10v-454c0 -6 -4 -10 -10 -10zM216 560h-8c-7 0 -10 2 -16 10l-76 98h-2l-76 -98c-6 -8 -9 -10 -16 -10h-8c-6 0 -8 5 -4 10l87 121c5 7 8 9 14 9h8c6 0 9 -2 14 -9l87 -121c4 -5 2 -10 -4 -10z" />
      <glyph d="M120 0h-10c-6 0 -10 4 -10 10v454c0 6 4 10 10 10h10c6 0 10 -4 10 -10v-454c0 -6 -4 -10 -10 -10zM166 613c-23 0 -41 11 -57 21c-14 9 -29 18 -46 18c-20 0 -36 -13 -55 -34c-4 -4 -8 -2 -8 3v15c0 5 1 8 7 14c15 16 34 28 57 28s42 -11 57 -21s29 -18 46 -18
c20 0 36 13 55 34c4 4 8 2 8 -3v-15c0 -5 -1 -8 -7 -14c-15 -16 -34 -28 -57 -28z" />
      <glyph d="M120 0h-10c-6 0 -10 4 -10 10v454c0 6 4 10 10 10h10c6 0 10 -4 10 -10v-454c0 -6 -4 -10 -10 -10zM227 620h-24c-6 0 -10 4 -10 10v40c0 6 4 10 10 10h24c6 0 10 -4 10 -10v-40c0 -6 -4 -10 -10 -10zM27 620h-24c-6 0 -10 4 -10 10v40c0 6 4 10 10 10h24
c6 0 10 -4 10 -10v-40c0 -6 -4 -10 -10 -10z" />
      <glyph d="M120 0h-10c-6 0 -10 4 -10 10v454c0 6 4 10 10 10h10c6 0 10 -4 10 -10v-454c0 -6 -4 -10 -10 -10zM231 634h-232c-6 0 -10 4 -10 10v8c0 6 4 10 10 10h232c6 0 10 -4 10 -10v-8c0 -6 -4 -10 -10 -10z" />
      <glyph d="M127 620h-24c-6 0 -10 4 -10 10v40c0 6 4 10 10 10h24c6 0 10 -4 10 -10v-40c0 -6 -4 -10 -10 -10zM92 -162c-37 0 -59 21 -59 57c0 29 12 53 67 112v457c0 6 4 10 10 10h10c6 0 10 -4 10 -10v-454c0 -4 -1 -6 -4 -9c-58 -62 -63 -82 -63 -104c0 -19 12 -31 31 -31
c10 0 20 5 30 11c5 3 11 2 14 -3l3 -5c3 -5 2 -10 -3 -14c-9 -8 -28 -17 -46 -17z" />
      <glyph d="M23 -180h-4c-6 0 -10 4 -10 10v8c0 6 4 10 10 10h4c60 0 77 14 77 81v535c0 6 4 10 10 10h10c6 0 10 -4 10 -10v-535c0 -84 -26 -109 -107 -109z" />
      <glyph d="M23 -180h-4c-6 0 -10 4 -10 10v8c0 6 4 10 10 10h4c60 0 77 14 77 81v535c0 6 4 10 10 10h10c6 0 10 -4 10 -10v-535c0 -84 -26 -109 -107 -109zM216 560h-8c-7 0 -10 2 -16 10l-76 98h-2l-76 -98c-6 -8 -9 -10 -16 -10h-8c-6 0 -8 5 -4 10l87 121c5 7 8 9 14 9h8
c6 0 9 -2 14 -9l87 -121c4 -5 2 -10 -4 -10z" />
      <glyph d="M440 0h-13c-7 0 -10 2 -15 10l-165 269l-117 -140v-129c0 -6 -4 -10 -10 -10h-10c-6 0 -10 4 -10 10v660c0 6 4 10 10 10h10c6 0 10 -4 10 -10v-488l237 283c6 7 9 9 16 9h15c6 0 9 -5 5 -10l-136 -162l179 -292c3 -5 0 -10 -6 -10zM237 -183c-6 0 -7 3 -7 9v109
c0 6 3 10 9 10h11c6 0 9 -4 9 -10v-64c0 -10 -1 -18 -5 -28l-7 -19c-2 -4 -5 -7 -10 -7z" />
      <glyph d="M440 0h-13c-7 0 -10 2 -15 10l-165 269l-117 -140v-129c0 -6 -4 -10 -10 -10h-10c-6 0 -10 4 -10 10v454c0 6 4 10 10 10h10c6 0 10 -4 10 -10v-282l237 283c6 7 9 9 16 9h15c6 0 9 -5 5 -10l-136 -162l179 -292c3 -5 0 -10 -6 -10z" />
      <glyph d="M199 -2h-15c-62 0 -85 28 -85 99v573c0 6 4 10 10 10h10c6 0 10 -4 10 -10v-573c0 -54 15 -71 55 -71h15c6 0 10 -4 10 -10v-8c0 -6 -4 -10 -10 -10zM120 765h-7c-6 0 -9 4 -4 10l80 103c7 8 10 10 17 10h15c6 0 8 -5 4 -10l-87 -103c-8 -9 -10 -10 -18 -10z" />
      <glyph d="M199 -2h-15c-62 0 -85 28 -85 99v573c0 6 4 10 10 10h10c6 0 10 -4 10 -10v-573c0 -54 15 -71 55 -71h15c6 0 10 -4 10 -10v-8c0 -6 -4 -10 -10 -10zM192 552c-6 0 -7 3 -7 9v109c0 6 3 10 9 10h11c6 0 9 -4 9 -10v-64c0 -10 -1 -18 -5 -28l-7 -19c-2 -4 -5 -7 -10 -7z
" />
      <glyph d="M199 -2h-15c-62 0 -85 28 -85 99v573c0 6 4 10 10 10h10c6 0 10 -4 10 -10v-573c0 -54 15 -71 55 -71h15c6 0 10 -4 10 -10v-8c0 -6 -4 -10 -10 -10zM147 -183c-6 0 -7 3 -7 9v109c0 6 3 10 9 10h11c6 0 9 -4 9 -10v-64c0 -10 -1 -18 -5 -28l-7 -19c-2 -4 -5 -7 -10 -7z
" />
      <glyph d="M199 392l-70 -36v-259c0 -54 15 -71 55 -71h15c6 0 10 -4 10 -10v-8c0 -6 -4 -10 -10 -10h-15c-62 0 -85 28 -85 99v244l-41 -21c-6 -3 -10 0 -10 6v12c0 6 2 10 10 14l41 21v297c0 6 4 10 10 10h10c6 0 10 -4 10 -10v-282l70 36c6 3 10 0 10 -6v-12c0 -6 -2 -10 -10 -14
z" />
      <glyph d="M199 -2h-15c-62 0 -85 28 -85 99v573c0 6 4 10 10 10h10c6 0 10 -4 10 -10v-573c0 -54 15 -71 55 -71h15c6 0 10 -4 10 -10v-8c0 -6 -4 -10 -10 -10zM252 291h-28c-6 0 -10 4 -10 10v50c0 6 4 10 10 10h28c6 0 10 -4 10 -10v-50c0 -6 -4 -10 -10 -10z" />
      <glyph d="M434 0h-10c-6 0 -10 4 -10 10v284c0 112 -46 162 -139 162c-79 0 -145 -54 -145 -147v-299c0 -6 -4 -10 -10 -10h-10c-6 0 -10 4 -10 10v454c0 6 4 10 10 10h10c6 0 10 -4 10 -10v-67h1c24 55 78 87 146 87c107 0 167 -61 167 -183v-291c0 -6 -4 -10 -10 -10zM239 560h-7
c-6 0 -9 4 -5 10l78 120c4 7 8 10 16 10h15c6 0 9 -5 5 -10l-85 -120c-6 -8 -9 -10 -17 -10z" />
      <glyph d="M434 0h-10c-6 0 -10 4 -10 10v284c0 112 -46 162 -139 162c-79 0 -145 -54 -145 -147v-299c0 -6 -4 -10 -10 -10h-10c-6 0 -10 4 -10 10v454c0 6 4 10 10 10h10c6 0 10 -4 10 -10v-67h1c24 55 78 87 146 87c107 0 167 -61 167 -183v-291c0 -6 -4 -10 -10 -10zM273 560h-8
c-6 0 -9 2 -14 9l-87 121c-4 5 -2 10 4 10h8c7 0 10 -2 16 -10l76 -98h2l76 98c6 8 9 10 16 10h8c6 0 8 -5 4 -10l-87 -121c-5 -7 -8 -9 -14 -9z" />
      <glyph d="M434 0h-10c-6 0 -10 4 -10 10v284c0 112 -46 162 -139 162c-79 0 -145 -54 -145 -147v-299c0 -6 -4 -10 -10 -10h-10c-6 0 -10 4 -10 10v454c0 6 4 10 10 10h10c6 0 10 -4 10 -10v-67h1c24 55 78 87 146 87c107 0 167 -61 167 -183v-291c0 -6 -4 -10 -10 -10zM320 613
c-23 0 -41 11 -57 21c-14 9 -29 18 -46 18c-20 0 -36 -13 -55 -34c-4 -4 -8 -2 -8 3v15c0 5 1 8 7 14c15 16 34 28 57 28s42 -11 57 -21s29 -18 46 -18c20 0 36 13 55 34c4 4 8 2 8 -3v-15c0 -5 -1 -8 -7 -14c-15 -16 -34 -28 -57 -28z" />
      <glyph d="M434 0h-10c-6 0 -10 4 -10 10v284c0 112 -46 162 -139 162c-79 0 -145 -54 -145 -147v-299c0 -6 -4 -10 -10 -10h-10c-6 0 -10 4 -10 10v454c0 6 4 10 10 10h10c6 0 10 -4 10 -10v-67h1c24 55 78 87 146 87c107 0 167 -61 167 -183v-291c0 -6 -4 -10 -10 -10zM261 -183
c-6 0 -7 3 -7 9v109c0 6 3 10 9 10h11c6 0 9 -4 9 -10v-64c0 -10 -1 -18 -5 -28l-7 -19c-2 -4 -5 -7 -10 -7z" />
      <glyph d="M251 -10c-84 0 -145 44 -170 120c-10 31 -16 67 -16 127s6 96 16 127c25 76 86 120 170 120s145 -44 170 -120c10 -31 16 -67 16 -127s-6 -96 -16 -127c-25 -76 -86 -120 -170 -120zM251 18c69 0 121 37 142 102c9 28 14 61 14 117s-5 89 -14 117
c-21 65 -73 102 -142 102s-121 -37 -142 -102c-9 -28 -14 -61 -14 -117s5 -89 14 -117c21 -65 73 -102 142 -102zM269 560h-7c-8 0 -11 2 -17 10l-85 120c-4 5 -1 10 5 10h15c8 0 12 -3 16 -10l78 -120c4 -6 1 -10 -5 -10z" />
      <glyph d="M251 -10c-84 0 -145 44 -170 120c-10 31 -16 67 -16 127s6 96 16 127c25 76 86 120 170 120s145 -44 170 -120c10 -31 16 -67 16 -127s-6 -96 -16 -127c-25 -76 -86 -120 -170 -120zM251 18c69 0 121 37 142 102c9 28 14 61 14 117s-5 89 -14 117
c-21 65 -73 102 -142 102s-121 -37 -142 -102c-9 -28 -14 -61 -14 -117s5 -89 14 -117c21 -65 73 -102 142 -102zM240 560h-7c-6 0 -9 4 -5 10l78 120c4 7 8 10 16 10h15c6 0 9 -5 5 -10l-85 -120c-6 -8 -9 -10 -17 -10z" />
      <glyph d="M251 -10c-84 0 -145 44 -170 120c-10 31 -16 67 -16 127s6 96 16 127c25 76 86 120 170 120s145 -44 170 -120c10 -31 16 -67 16 -127s-6 -96 -16 -127c-25 -76 -86 -120 -170 -120zM251 18c69 0 121 37 142 102c9 28 14 61 14 117s-5 89 -14 117
c-21 65 -73 102 -142 102s-121 -37 -142 -102c-9 -28 -14 -61 -14 -117s5 -89 14 -117c21 -65 73 -102 142 -102zM352 560h-8c-7 0 -10 2 -16 10l-76 98h-2l-76 -98c-6 -8 -9 -10 -16 -10h-8c-6 0 -8 5 -4 10l87 121c5 7 8 9 14 9h8c6 0 9 -2 14 -9l87 -121
c4 -5 2 -10 -4 -10z" />
      </font>
</defs>
</svg>
