<?xml version="1.0" standalone="no"?>
<!DOCTYPE svg PUBLIC "-//W3C//DTD SVG 1.1//EN" "http://www.w3.org/Graphics/SVG/1.1/DTD/svg11.dtd"[]>
<svg xmlns="http://www.w3.org/2000/svg" xmlns:xlink="http://www.w3.org/1999/xlink" version="1.1">
  <metadata>
Created by FontForge 20201107 at Mon Feb 23 15:19:36 2009
 By Unknown
Copyright (c) 2008 - 2009 Linotype GmbH, www.linotype.com. All rights reserved. This font software may not be reproduced, modified, disclosed or transferred without the express written approval of Linotype GmbH.
</metadata>
  <defs>
    <font id="DINNextLTPro-Medium">
      <glyph d="M-5 502c-6 0 -10 5 -10 11v157c0 6 4 10 10 10h83c6 0 10 -4 10 -10v-73c0 -8 -1 -13 -7 -19l-71 -69c-5 -5 -10 -7 -15 -7zM470 0h-92c-6 0 -10 4 -10 10v278c0 62 -31 105 -91 105c-58 0 -92 -43 -92 -105v-278c0 -6 -4 -10 -10 -10h-92c-6 0 -10 4 -10 10v462
c0 6 4 10 10 10h92c6 0 10 -4 10 -10v-35h1c21 30 63 56 127 56c103 0 167 -76 167 -179v-304c0 -6 -4 -10 -10 -10z" />
      <glyph d="M75 10v660c0 6 4 10 10 10h98c6 0 10 -4 10 -10v-660c0 -6 -4 -10 -10 -10h-98c-6 0 -10 4 -10 10zM292 71c-3 5 -3 10 2 14l73 55c5 3 10 3 15 -3c17 -20 51 -42 91 -42c72 0 113 45 113 134v441c0 6 4 10 10 10h98c6 0 10 -4 10 -10v-441c0 -154 -91 -240 -235 -240
c-77 0 -147 37 -177 82z" />
      <glyph d="M175 573h-92c-6 0 -10 4 -10 10v87c0 6 4 10 10 10h92c6 0 10 -4 10 -10v-87c0 -6 -4 -10 -10 -10zM175 0h-92c-6 0 -10 4 -10 10v462c0 6 4 10 10 10h92c6 0 10 -4 10 -10v-462c0 -6 -4 -10 -10 -10zM433 573h-92c-6 0 -10 4 -10 10v87c0 6 4 10 10 10h92
c6 0 10 -4 10 -10v-87c0 -6 -4 -10 -10 -10zM281 -180h-28c-6 0 -10 4 -10 10v80c0 6 4 10 10 10h22c40 0 56 13 56 57v495c0 6 4 10 10 10h92c6 0 10 -4 10 -10v-493c0 -111 -57 -159 -162 -159z" />
      <glyph d="M190 0h-92c-6 0 -10 4 -10 10v379c0 4 -2 6 -6 6h-32c-6 0 -10 4 -10 10v67c0 6 4 10 10 10h32c4 0 6 2 6 6v31c0 112 55 161 160 161h44c6 0 10 -4 10 -10v-80c0 -6 -4 -10 -10 -10h-31c-50 0 -61 -12 -61 -59v-33c0 -4 2 -6 6 -6h86c6 0 10 -4 10 -10v-67
c0 -6 -4 -10 -10 -10h-86c-4 0 -6 -2 -6 -6v-379c0 -6 -4 -10 -10 -10zM503 573h-92c-6 0 -10 4 -10 10v87c0 6 4 10 10 10h92c6 0 10 -4 10 -10v-87c0 -6 -4 -10 -10 -10zM503 0h-92c-6 0 -10 4 -10 10v462c0 6 4 10 10 10h92c6 0 10 -4 10 -10v-462c0 -6 -4 -10 -10 -10z
" />
      <glyph d="M190 0h-92c-6 0 -10 4 -10 10v379c0 4 -2 6 -6 6h-32c-6 0 -10 4 -10 10v67c0 6 4 10 10 10h32c4 0 6 2 6 6v31c0 112 55 161 160 161h44c6 0 10 -4 10 -10v-80c0 -6 -4 -10 -10 -10h-31c-50 0 -61 -12 -61 -59v-33c0 -4 2 -6 6 -6h86c6 0 10 -4 10 -10v-67
c0 -6 -4 -10 -10 -10h-86c-4 0 -6 -2 -6 -6v-379c0 -6 -4 -10 -10 -10zM575 -6h-44c-94 0 -132 45 -132 138v538c0 6 4 10 10 10h92c6 0 10 -4 10 -10v-532c0 -33 13 -44 42 -44h22c6 0 10 -4 10 -10v-80c0 -6 -4 -10 -10 -10z" />
      <glyph d="M190 0h-92c-6 0 -10 4 -10 10v379c0 4 -2 6 -6 6h-32c-6 0 -10 4 -10 10v67c0 6 4 10 10 10h32c4 0 6 2 6 6v31c0 112 55 161 160 161h44c6 0 10 -4 10 -10v-80c0 -6 -4 -10 -10 -10h-31c-50 0 -61 -12 -61 -59v-33c0 -4 2 -6 6 -6h86c6 0 10 -4 10 -10v-67
c0 -6 -4 -10 -10 -10h-86c-4 0 -6 -2 -6 -6v-379c0 -6 -4 -10 -10 -10zM518 0h-92c-6 0 -10 4 -10 10v379c0 4 -2 6 -6 6h-32c-6 0 -10 4 -10 10v67c0 6 4 10 10 10h32c4 0 6 2 6 6v31c0 112 55 161 160 161h44c6 0 10 -4 10 -10v-80c0 -6 -4 -10 -10 -10h-31
c-50 0 -61 -12 -61 -59v-33c0 -4 2 -6 6 -6h86c6 0 10 -4 10 -10v-67c0 -6 -4 -10 -10 -10h-86c-4 0 -6 -2 -6 -6v-379c0 -6 -4 -10 -10 -10z" />
      <glyph d="M190 0h-92c-6 0 -10 4 -10 10v379c0 4 -2 6 -6 6h-32c-6 0 -10 4 -10 10v67c0 6 4 10 10 10h32c4 0 6 2 6 6v31c0 112 55 161 160 161h44c6 0 10 -4 10 -10v-80c0 -6 -4 -10 -10 -10h-31c-50 0 -61 -12 -61 -59v-33c0 -4 2 -6 6 -6h86c6 0 10 -4 10 -10v-67
c0 -6 -4 -10 -10 -10h-86c-4 0 -6 -2 -6 -6v-379c0 -6 -4 -10 -10 -10zM518 0h-92c-6 0 -10 4 -10 10v379c0 4 -2 6 -6 6h-32c-6 0 -10 4 -10 10v67c0 6 4 10 10 10h32c4 0 6 2 6 6v31c0 112 55 161 160 161h44c6 0 10 -4 10 -10v-80c0 -6 -4 -10 -10 -10h-31
c-50 0 -61 -12 -61 -59v-33c0 -4 2 -6 6 -6h86c6 0 10 -4 10 -10v-67c0 -6 -4 -10 -10 -10h-86c-4 0 -6 -2 -6 -6v-379c0 -6 -4 -10 -10 -10zM831 573h-92c-6 0 -10 4 -10 10v87c0 6 4 10 10 10h92c6 0 10 -4 10 -10v-87c0 -6 -4 -10 -10 -10zM831 0h-92c-6 0 -10 4 -10 10
v462c0 6 4 10 10 10h92c6 0 10 -4 10 -10v-462c0 -6 -4 -10 -10 -10z" />
      <glyph d="M190 0h-92c-6 0 -10 4 -10 10v379c0 4 -2 6 -6 6h-32c-6 0 -10 4 -10 10v67c0 6 4 10 10 10h32c4 0 6 2 6 6v31c0 112 55 161 160 161h44c6 0 10 -4 10 -10v-80c0 -6 -4 -10 -10 -10h-31c-50 0 -61 -12 -61 -59v-33c0 -4 2 -6 6 -6h86c6 0 10 -4 10 -10v-67
c0 -6 -4 -10 -10 -10h-86c-4 0 -6 -2 -6 -6v-379c0 -6 -4 -10 -10 -10zM518 0h-92c-6 0 -10 4 -10 10v379c0 4 -2 6 -6 6h-32c-6 0 -10 4 -10 10v67c0 6 4 10 10 10h32c4 0 6 2 6 6v31c0 112 55 161 160 161h44c6 0 10 -4 10 -10v-80c0 -6 -4 -10 -10 -10h-31
c-50 0 -61 -12 -61 -59v-33c0 -4 2 -6 6 -6h86c6 0 10 -4 10 -10v-67c0 -6 -4 -10 -10 -10h-86c-4 0 -6 -2 -6 -6v-379c0 -6 -4 -10 -10 -10zM903 -6h-44c-94 0 -132 45 -132 138v538c0 6 4 10 10 10h92c6 0 10 -4 10 -10v-532c0 -33 13 -44 42 -44h22c6 0 10 -4 10 -10v-80
c0 -6 -4 -10 -10 -10z" />
      <glyph d="M0 10v660c0 6 4 10 10 10h463c6 0 10 -4 10 -10v-660c0 -6 -4 -10 -10 -10h-463c-6 0 -10 4 -10 10zM59 61c0 -4 2 -6 6 -6h353c4 0 6 2 6 6v558c0 4 -2 6 -6 6h-353c-4 0 -6 -2 -6 -6v-558zM202 237c-6 0 -10 4 -10 10v24c0 26 6 39 17 55l51 70c14 20 21 35 21 53
c0 28 -19 49 -48 49c-32 0 -48 -18 -55 -45c-1 -6 -5 -10 -11 -9l-52 9c-6 1 -9 5 -8 11c13 60 56 99 129 99c70 0 119 -50 119 -114c0 -29 -9 -53 -26 -74l-50 -71c-8 -11 -13 -22 -13 -41v-16c0 -6 -4 -10 -10 -10h-54zM190 124v59c0 6 4 10 10 10h58c6 0 10 -4 10 -10
v-59c0 -6 -4 -10 -10 -10h-58c-6 0 -10 4 -10 10z" />
      <glyph />
      <glyph />
      <glyph />
      <glyph d="M124 190c-6 0 -10 4 -10 10l-23 470c0 6 4 10 10 10h105c6 0 10 -4 10 -10l-23 -470c0 -6 -4 -10 -10 -10h-59zM93 10v102c0 6 4 10 10 10h100c6 0 10 -4 10 -10v-102c0 -6 -4 -10 -10 -10h-100c-6 0 -10 4 -10 10z" />
      <glyph d="M212 488c-6 0 -10 4 -10 10v172c0 6 4 10 10 10h62c6 0 10 -4 10 -10v-172c0 -6 -4 -10 -10 -10h-62zM71 488c-6 0 -10 4 -10 10v172c0 6 4 10 10 10h61c6 0 10 -4 10 -10v-172c0 -6 -4 -10 -10 -10h-61z" />
      <glyph d="M69 10l27 200h-66c-6 0 -10 4 -10 10v58c0 6 4 10 10 10h77l16 116h-67c-6 0 -10 4 -10 10v58c0 6 4 10 10 10h77l26 188c1 6 4 10 11 10h63c7 0 10 -4 9 -10l-26 -188h116l26 188c1 6 4 10 11 10h63c7 0 10 -4 9 -10l-26 -188h69c6 0 10 -4 10 -10v-58
c0 -6 -4 -10 -10 -10h-79l-16 -116h69c6 0 10 -4 10 -10v-58c0 -6 -4 -10 -10 -10h-80l-27 -200c-1 -6 -4 -10 -11 -10h-63c-7 0 -10 4 -9 10l27 200h-116l-27 -200c-1 -6 -4 -10 -11 -10h-63c-7 0 -10 4 -9 10zM190 288h116l16 116h-116z" />
      <glyph d="M60 61c-5 4 -6 10 -2 15l53 67c4 5 10 5 14 1c29 -24 75 -49 128 -54v205c-114 19 -183 90 -183 192c0 111 76 191 183 202v52c0 6 4 10 10 10h39c6 0 10 -4 10 -10v-52c58 -5 111 -25 153 -53c5 -4 6 -8 2 -14l-46 -68c-4 -5 -9 -5 -14 -2c-29 18 -61 31 -95 36v-195
c121 -20 184 -90 184 -193c0 -113 -70 -192 -184 -208v-53c0 -6 -4 -10 -10 -10h-39c-6 0 -10 4 -10 10v51c-76 3 -141 30 -193 71zM253 405v183c-45 -9 -74 -45 -74 -93c0 -42 17 -74 74 -90zM312 93c49 12 75 47 75 103c0 38 -18 71 -75 88v-191z" />
      <glyph d="M151 -1l395 682c4 7 8 10 16 10h65c6 0 8 -5 5 -10l-395 -682c-4 -7 -8 -10 -15 -10h-66c-6 0 -8 5 -5 10zM192 330c-60 0 -106 32 -122 80c-7 21 -8 30 -8 99s1 78 8 99c16 48 62 80 122 80c59 0 106 -32 122 -80c7 -21 8 -30 8 -99s-1 -78 -8 -99
c-16 -48 -63 -80 -122 -80zM192 402c20 0 37 10 43 29c3 8 4 16 4 78s-1 70 -4 79c-6 18 -23 28 -43 28c-21 0 -37 -10 -44 -28c-3 -9 -4 -17 -4 -79s1 -70 4 -78c7 -19 23 -29 44 -29zM467 71c-6 21 -8 30 -8 99s2 78 8 99c16 48 63 80 123 80c59 0 106 -32 122 -80
c7 -21 8 -30 8 -99s-1 -78 -8 -99c-16 -48 -63 -80 -122 -80c-60 0 -107 32 -123 80zM546 92c7 -19 23 -29 44 -29c20 0 37 10 43 29c3 8 4 16 4 78s-1 70 -4 79c-6 18 -23 28 -43 28c-21 0 -37 -10 -44 -28c-3 -9 -4 -17 -4 -79s1 -70 4 -78z" />
      <glyph d="M63 171c0 72 33 133 129 208c-55 71 -76 106 -76 156c0 91 75 156 169 156c100 0 166 -72 166 -153c0 -62 -30 -106 -118 -174l106 -136l68 81c4 5 9 5 14 1l55 -47c5 -4 6 -9 2 -14l-80 -97l24 -30c12 -16 25 -22 41 -22h15c6 0 10 -4 10 -10v-80c0 -6 -4 -10 -10 -10
h-33c-45 0 -66 11 -99 53l-17 21c-57 -59 -108 -85 -177 -85c-125 0 -189 77 -189 182zM274 440c63 49 75 70 75 99c0 33 -27 60 -63 60c-38 0 -65 -26 -65 -61c0 -24 8 -39 53 -98zM167 177c0 -54 35 -91 93 -91c37 0 66 15 111 63l-120 154c-65 -50 -84 -89 -84 -126z" />
      <glyph d="M71 488c-6 0 -10 4 -10 10v172c0 6 4 10 10 10h61c6 0 10 -4 10 -10v-172c0 -6 -4 -10 -10 -10h-61z" />
      <glyph d="M179 -74c-87 122 -128 265 -128 402s42 282 128 402c5 7 10 10 17 10h49c6 0 9 -4 6 -10c-60 -120 -93 -265 -93 -402s34 -285 93 -402c3 -6 0 -10 -6 -10h-49c-7 0 -12 3 -17 10z" />
      <glyph d="M42 -74c59 117 93 265 93 402s-33 282 -93 402c-3 6 0 10 6 10h49c7 0 12 -3 17 -10c86 -120 128 -265 128 -402s-41 -280 -128 -402c-5 -7 -10 -10 -17 -10h-49c-6 0 -9 4 -6 10z" />
      <glyph d="M146 392c-6 0 -10 4 -10 10l1 81l-70 -42c-5 -3 -11 -1 -14 4l-21 38c-3 5 -1 11 4 14l70 39l-70 39c-5 3 -7 9 -4 14l21 38c3 5 9 7 14 4l70 -42l-1 81c0 6 4 10 10 10h43c6 0 10 -4 10 -10l-1 -81l70 42c5 3 11 1 14 -4l21 -38c3 -5 1 -11 -4 -14l-70 -39l70 -39
c5 -3 7 -9 4 -14l-21 -38c-3 -5 -9 -7 -14 -4l-70 42l1 -81c0 -6 -4 -10 -10 -10h-43z" />
      <glyph d="M224 67v154c0 4 -2 6 -6 6h-153c-6 0 -10 4 -10 10v78c0 6 4 10 10 10h153c4 0 6 2 6 6v154c0 6 4 10 10 10h81c6 0 10 -4 10 -10v-154c0 -4 2 -6 6 -6h153c6 0 10 -4 10 -10v-78c0 -6 -4 -10 -10 -10h-153c-4 0 -6 -2 -6 -6v-154c0 -6 -4 -10 -10 -10h-81
c-6 0 -10 4 -10 10z" />
      <glyph d="M66 -101v213c0 6 4 10 10 10h94c6 0 10 -4 10 -10v-109c0 -10 -1 -15 -7 -21l-83 -86c-5 -5 -9 -7 -14 -7c-6 0 -10 4 -10 10z" />
      <glyph d="M55 216c-6 0 -10 4 -10 10v79c0 6 4 10 10 10h275c6 0 10 -4 10 -10v-79c0 -6 -4 -10 -10 -10h-275z" />
      <glyph d="M66 10v102c0 6 4 10 10 10h100c6 0 10 -4 10 -10v-102c0 -6 -4 -10 -10 -10h-100c-6 0 -10 4 -10 10z" />
      <glyph d="M54 -1l222 682c2 7 6 10 13 10h75c6 0 9 -4 7 -10l-222 -682c-2 -7 -6 -10 -13 -10h-75c-6 0 -9 4 -7 10z" />
      <glyph d="M81 122c-9 28 -14 60 -14 218s5 190 14 218c27 85 92 133 193 133s166 -48 194 -133c9 -28 14 -60 14 -218s-5 -190 -14 -218c-28 -85 -93 -133 -194 -133s-166 48 -193 133zM191 143c13 -36 41 -54 83 -54s71 18 84 54c7 21 9 44 9 197s-2 176 -9 197
c-13 36 -42 54 -84 54s-70 -18 -83 -54c-7 -21 -9 -44 -9 -197s2 -176 9 -197z" />
      <glyph d="M247 10v536h-2l-104 -73c-6 -4 -11 -2 -11 6v102c0 6 2 10 7 14l109 79c5 4 10 6 18 6h85c6 0 10 -4 10 -10v-660c0 -6 -4 -10 -10 -10h-92c-6 0 -10 4 -10 10z" />
      <glyph d="M72 10v75c0 6 1 9 5 13l240 299c27 33 44 65 44 104c0 51 -33 90 -90 90c-54 0 -85 -33 -92 -85c-1 -6 -5 -9 -11 -8l-88 18c-6 1 -9 6 -8 12c9 80 73 163 202 163c127 0 200 -84 200 -190c0 -61 -24 -111 -64 -159l-198 -240v-2h252c6 0 10 -4 10 -10v-80
c0 -6 -4 -10 -10 -10h-382c-6 0 -10 4 -10 10z" />
      <glyph d="M61 135c-1 6 2 11 8 13l87 20c5 1 10 -1 12 -7c14 -40 47 -72 103 -72c63 0 100 43 100 101c0 69 -44 111 -111 111h-29c-6 0 -10 4 -10 10v79c0 6 4 10 10 10h27c60 0 99 39 99 99c0 54 -34 92 -91 92c-50 0 -79 -28 -91 -70c-2 -6 -6 -8 -12 -7l-85 20c-6 1 -9 6 -8 12
c15 82 90 145 200 145c127 0 200 -78 200 -188c0 -57 -26 -108 -76 -141v-2c40 -17 90 -76 90 -165c0 -124 -91 -206 -213 -206c-106 0 -189 53 -210 146z" />
      <glyph d="M56 104c-6 0 -10 4 -10 10v77c0 5 1 9 3 12l220 469c3 6 7 8 14 8h95c7 0 9 -4 7 -9l-216 -465v-2h154c4 0 6 2 6 6v170c0 6 4 10 10 10h92c6 0 10 -4 10 -10v-170c0 -4 2 -6 6 -6h50c6 0 10 -4 10 -10v-80c0 -6 -4 -10 -10 -10h-50c-4 0 -6 -2 -6 -6v-88
c0 -6 -4 -10 -10 -10h-92c-6 0 -10 4 -10 10v88c0 4 -2 6 -6 6h-267z" />
      <glyph d="M81 129c-1 5 2 10 8 12l85 21c6 1 10 -2 12 -8c13 -38 44 -65 94 -65c39 0 72 20 84 56c7 18 9 40 9 75c0 37 -3 58 -9 75c-13 40 -46 56 -85 56c-45 0 -72 -24 -83 -47c-3 -7 -5 -10 -12 -10h-84c-6 0 -10 4 -10 10v366c0 6 4 10 10 10h362c6 0 10 -4 10 -10v-80
c0 -6 -4 -10 -10 -10h-263c-4 0 -6 -2 -6 -6v-153h3c16 13 51 30 100 30c87 0 151 -41 175 -115c9 -29 15 -61 15 -116c0 -45 -5 -80 -14 -107c-26 -79 -102 -124 -192 -124c-105 0 -184 56 -199 140z" />
      <glyph d="M58 199c0 54 19 108 45 156l178 319c3 5 5 6 12 6h96c7 0 9 -4 6 -10l-150 -272l2 -2c10 5 30 9 51 9c105 0 194 -76 194 -201c0 -139 -96 -215 -217 -215s-217 76 -217 210zM172 197c0 -64 40 -108 103 -108c64 0 104 44 104 108s-40 108 -104 108
c-63 0 -103 -44 -103 -108z" />
      <glyph d="M139 11l222 566v3h-169c-4 0 -6 -2 -6 -6v-78c0 -6 -4 -10 -10 -10h-86c-6 0 -10 4 -10 10v174c0 6 4 10 10 10h381c6 0 10 -4 10 -10v-78c0 -8 -1 -13 -3 -18l-225 -565c-3 -7 -5 -9 -13 -9h-95c-6 0 -9 4 -6 11z" />
      <glyph d="M55 193c0 77 39 134 85 163v2c-34 23 -70 73 -70 139c0 102 73 194 204 194c132 0 205 -92 205 -194c0 -66 -36 -116 -70 -139v-2c46 -29 85 -86 85 -163c0 -121 -91 -204 -220 -204c-128 0 -219 83 -219 204zM274 407c56 0 92 43 92 92c0 50 -36 92 -92 92
c-55 0 -91 -42 -91 -92c0 -49 36 -92 91 -92zM168 198c0 -64 42 -109 106 -109c65 0 107 45 107 109c0 63 -42 109 -107 109c-64 0 -106 -46 -106 -109z" />
      <glyph d="M154 10l150 272l-2 2c-9 -5 -30 -9 -51 -9c-104 0 -194 76 -194 201c0 139 97 215 217 215c122 0 217 -76 217 -210c0 -54 -18 -108 -45 -156l-177 -319c-3 -5 -5 -6 -12 -6h-97c-7 0 -9 4 -6 10zM274 375c64 0 104 44 104 108s-40 108 -104 108
c-63 0 -103 -44 -103 -108s40 -108 103 -108z" />
      <glyph d="M80 360c-6 0 -10 4 -10 10v102c0 6 4 10 10 10h100c6 0 10 -4 10 -10v-102c0 -6 -4 -10 -10 -10h-100zM70 10v102c0 6 4 10 10 10h100c6 0 10 -4 10 -10v-102c0 -6 -4 -10 -10 -10h-100c-6 0 -10 4 -10 10z" />
      <glyph d="M80 360c-6 0 -10 4 -10 10v102c0 6 4 10 10 10h100c6 0 10 -4 10 -10v-102c0 -6 -4 -10 -10 -10h-100zM73 -101v213c0 6 4 10 10 10h94c6 0 10 -4 10 -10v-109c0 -10 -1 -14 -6 -20l-84 -87c-5 -5 -9 -7 -14 -7c-6 0 -10 4 -10 10z" />
      <glyph d="M65 229c-6 2 -10 7 -10 14v66c0 7 4 12 10 14l419 172c6 2 10 0 10 -6v-89c0 -7 -2 -10 -10 -13l-286 -110v-2l286 -110c8 -3 10 -6 10 -13v-89c0 -6 -4 -8 -10 -6z" />
      <glyph d="M65 327c-6 0 -10 4 -10 10v78c0 6 4 10 10 10h419c6 0 10 -4 10 -10v-78c0 -6 -4 -10 -10 -10h-419zM65 127c-6 0 -10 4 -10 10v78c0 6 4 10 10 10h419c6 0 10 -4 10 -10v-78c0 -6 -4 -10 -10 -10h-419z" />
      <glyph d="M55 63v89c0 7 3 10 10 13l286 110v2l-286 110c-7 3 -10 6 -10 13v89c0 6 4 8 10 6l419 -172c6 -2 10 -7 10 -14v-66c0 -7 -4 -12 -10 -14l-419 -172c-6 -2 -10 0 -10 6z" />
      <glyph d="M177 190c-6 0 -10 4 -10 10v41c0 40 8 60 26 85l79 108c24 32 34 55 34 82c0 43 -30 75 -78 75c-47 0 -76 -29 -85 -80c-1 -6 -5 -9 -11 -8l-90 14c-7 1 -9 6 -8 12c16 100 88 162 198 162s188 -72 188 -174c0 -43 -13 -80 -41 -117l-79 -108c-15 -19 -20 -33 -20 -63
v-29c0 -6 -4 -10 -10 -10h-93zM163 10v102c0 6 4 10 10 10h100c6 0 10 -4 10 -10v-102c0 -6 -4 -10 -10 -10h-100c-6 0 -10 4 -10 10z" />
      <glyph d="M54 268c0 231 162 392 396 392s396 -163 396 -392c0 -147 -77 -214 -165 -214c-59 0 -99 25 -121 64h-1c-19 -37 -61 -63 -132 -63c-73 0 -123 33 -144 98c-9 27 -13 56 -13 111s4 84 13 111c21 65 71 98 140 98c53 0 92 -24 108 -51h2v31c0 6 4 9 8 9h74c6 0 8 -3 8 -9
v-247c0 -50 27 -70 58 -70c39 0 73 30 73 132c0 183 -116 310 -304 310s-304 -125 -304 -310s116 -310 304 -310c93 0 154 17 214 45c6 3 11 2 14 -5l23 -54c3 -5 1 -10 -4 -13c-72 -38 -145 -55 -247 -55c-234 0 -396 161 -396 392zM369 193c13 -37 39 -55 79 -55
s66 18 78 55c5 16 7 33 7 71s-2 55 -7 70c-12 38 -38 56 -78 56s-66 -18 -79 -56c-5 -15 -7 -32 -7 -70s2 -55 7 -71z" />
      <glyph d="M18 10l233 660c2 6 6 10 13 10h92c7 0 11 -4 13 -10l230 -660c2 -6 0 -10 -7 -10h-98c-7 0 -11 3 -13 10l-45 132h-256l-45 -132c-2 -7 -6 -10 -13 -10h-97c-7 0 -9 4 -7 10zM216 247h184l-90 264h-3z" />
      <glyph d="M75 10v660c0 6 4 10 10 10h253c144 0 212 -72 212 -181c0 -77 -36 -121 -79 -144v-2c42 -16 91 -70 91 -153c0 -135 -85 -200 -234 -200h-243c-6 0 -10 4 -10 10zM199 397h136c60 0 97 36 97 89c0 54 -37 90 -97 90h-136c-4 0 -6 -2 -6 -6v-167c0 -4 2 -6 6 -6zM193 110
c0 -4 2 -6 6 -6h142c66 0 103 38 103 95c0 56 -37 94 -103 94h-142c-4 0 -6 -2 -6 -6v-177z" />
      <glyph d="M73 156c-14 42 -18 76 -18 184s4 142 18 184c35 111 121 167 236 167c109 0 191 -56 230 -146c2 -5 0 -10 -5 -12l-85 -41c-6 -3 -11 0 -13 5c-22 48 -60 88 -127 88c-65 0 -103 -35 -122 -90c-9 -28 -12 -55 -12 -155s3 -127 12 -155c19 -55 57 -90 122 -90
c67 0 105 40 127 88c2 5 7 8 13 5l85 -41c5 -2 7 -7 5 -12c-39 -90 -121 -146 -230 -146c-115 0 -201 56 -236 167z" />
      <glyph d="M75 10v660c0 6 4 10 10 10h243c117 0 195 -52 227 -151c11 -34 17 -71 17 -189s-6 -155 -17 -189c-32 -99 -110 -151 -227 -151h-243c-6 0 -10 4 -10 10zM193 112c0 -4 2 -6 6 -6h101c75 0 121 25 141 86c7 19 12 50 12 148c0 99 -5 129 -12 148c-20 61 -66 86 -141 86
h-101c-4 0 -6 -2 -6 -6v-456z" />
      <glyph d="M75 10v660c0 6 4 10 10 10h426c6 0 10 -4 10 -10v-86c0 -6 -4 -10 -10 -10h-312c-4 0 -6 -2 -6 -6v-166c0 -4 2 -6 6 -6h263c6 0 10 -4 10 -10v-86c0 -6 -4 -10 -10 -10h-263c-4 0 -6 -2 -6 -6v-172c0 -4 2 -6 6 -6h312c6 0 10 -4 10 -10v-86c0 -6 -4 -10 -10 -10h-426
c-6 0 -10 4 -10 10z" />
      <glyph d="M75 10v660c0 6 4 10 10 10h426c6 0 10 -4 10 -10v-86c0 -6 -4 -10 -10 -10h-312c-4 0 -6 -2 -6 -6v-173c0 -4 2 -6 6 -6h263c6 0 10 -4 10 -10v-86c0 -6 -4 -10 -10 -10h-263c-4 0 -6 -2 -6 -6v-267c0 -6 -4 -10 -10 -10h-98c-6 0 -10 4 -10 10z" />
      <glyph d="M73 153c-14 42 -18 80 -18 187s4 145 18 187c35 108 123 164 243 164c127 0 209 -68 237 -144c2 -5 1 -11 -4 -14l-84 -37c-6 -2 -11 1 -13 5c-30 54 -71 84 -137 84c-69 0 -109 -34 -128 -89c-8 -25 -12 -59 -12 -156c0 -96 4 -131 12 -156c19 -55 59 -89 128 -89
c60 0 111 30 129 85c7 21 11 49 11 88c0 4 -2 6 -6 6h-112c-6 0 -10 4 -10 10v80c0 6 4 10 10 10h225c6 0 10 -4 10 -10v-59c0 -56 -5 -115 -16 -149c-33 -106 -123 -167 -240 -167c-120 0 -208 56 -243 164z" />
      <glyph d="M75 10v660c0 6 4 10 10 10h98c6 0 10 -4 10 -10v-268c0 -4 2 -6 6 -6h259c4 0 6 2 6 6v268c0 6 4 10 10 10h98c6 0 10 -4 10 -10v-660c0 -6 -4 -10 -10 -10h-98c-6 0 -10 4 -10 10v274c0 4 -2 6 -6 6h-259c-4 0 -6 -2 -6 -6v-274c0 -6 -4 -10 -10 -10h-98
c-6 0 -10 4 -10 10z" />
      <glyph d="M75 10v660c0 6 4 10 10 10h98c6 0 10 -4 10 -10v-660c0 -6 -4 -10 -10 -10h-98c-6 0 -10 4 -10 10z" />
      <glyph d="M24 71c-3 5 -3 10 2 14l73 55c5 3 10 3 15 -3c17 -20 51 -42 91 -42c72 0 113 45 113 134v441c0 6 4 10 10 10h98c6 0 10 -4 10 -10v-441c0 -154 -91 -240 -235 -240c-77 0 -147 37 -177 82z" />
      <glyph d="M75 10v660c0 6 4 10 10 10h98c6 0 10 -4 10 -10v-320l257 322c5 6 9 8 16 8h114c6 0 9 -7 4 -13l-211 -254l235 -401c4 -7 1 -12 -7 -12h-111c-8 0 -11 2 -15 8l-178 314l-104 -126v-186c0 -6 -4 -10 -10 -10h-98c-6 0 -10 4 -10 10z" />
      <glyph d="M75 10v660c0 6 4 10 10 10h98c6 0 10 -4 10 -10v-558c0 -4 2 -6 6 -6h312c6 0 10 -4 10 -10v-86c0 -6 -4 -10 -10 -10h-426c-6 0 -10 4 -10 10z" />
      <glyph d="M75 10v660c0 6 4 10 10 10h89c9 0 14 -3 17 -10l187 -419h4l184 419c3 7 8 10 17 10h88c6 0 10 -4 10 -10v-660c0 -6 -4 -10 -10 -10h-87c-6 0 -10 4 -10 10v416h-4l-144 -320c-4 -9 -10 -13 -19 -13h-58c-9 0 -15 4 -19 13l-144 320h-4v-416c0 -6 -4 -10 -10 -10h-87
c-6 0 -10 4 -10 10z" />
      <glyph d="M75 10v660c0 6 4 10 10 10h92c8 0 13 -3 17 -10l277 -469h4v469c0 6 4 10 10 10h87c6 0 10 -4 10 -10v-660c0 -6 -4 -10 -10 -10h-91c-8 0 -13 3 -17 10l-278 468h-4v-468c0 -6 -4 -10 -10 -10h-87c-6 0 -10 4 -10 10z" />
      <glyph d="M313 -11c-117 0 -205 56 -240 164c-14 42 -18 80 -18 187s4 145 18 187c35 108 123 164 240 164c118 0 206 -56 241 -164c14 -42 18 -80 18 -187s-4 -145 -18 -187c-35 -108 -123 -164 -241 -164zM313 95c68 0 108 34 127 89c8 25 12 60 12 156c0 97 -4 131 -12 156
c-19 55 -59 89 -127 89c-67 0 -107 -34 -126 -89c-8 -25 -12 -59 -12 -156c0 -96 4 -131 12 -156c19 -55 59 -89 126 -89z" />
      <glyph d="M183 0h-98c-6 0 -10 4 -10 10v660c0 6 4 10 10 10h255c132 0 224 -85 224 -211c0 -127 -92 -212 -224 -212h-141c-4 0 -6 -2 -6 -6v-241c0 -6 -4 -10 -10 -10zM333 364c70 0 113 42 113 105c0 62 -43 105 -113 105h-134c-4 0 -6 -2 -6 -6v-198c0 -4 2 -6 6 -6h134z" />
      <glyph d="M608 22l-62 -66c-4 -4 -10 -5 -15 0l-74 70c-40 -25 -89 -37 -144 -37c-117 0 -205 56 -240 164c-14 42 -18 80 -18 187s4 145 18 187c35 108 123 164 240 164c118 0 206 -56 241 -164c14 -42 18 -80 18 -187s-4 -145 -18 -187c-6 -17 -12 -32 -20 -46l74 -71
c4 -4 4 -9 0 -14zM313 94c23 0 44 3 61 11l-68 66c-4 3 -4 9 0 14l63 66c5 5 10 5 14 1l61 -59c7 25 10 61 10 147c0 97 -4 131 -12 156c-19 55 -61 90 -129 90c-67 0 -109 -35 -128 -90c-8 -25 -12 -59 -12 -156c0 -96 4 -131 12 -156c19 -55 61 -90 128 -90z" />
      <glyph d="M572 0h-111c-8 0 -12 3 -15 10l-130 265h-117c-4 0 -6 -2 -6 -6v-259c0 -6 -4 -10 -10 -10h-98c-6 0 -10 4 -10 10v660c0 6 4 10 10 10h263c125 0 217 -83 217 -203c0 -89 -51 -158 -129 -187l143 -277c4 -7 0 -13 -7 -13zM344 381c62 0 104 38 104 96
c0 59 -42 97 -104 97h-145c-4 0 -6 -2 -6 -6v-181c0 -4 2 -6 6 -6h145z" />
      <glyph d="M289 -11c-100 0 -197 40 -250 90c-4 4 -6 10 -2 15l62 72c4 5 10 5 14 1c44 -35 109 -72 185 -72c81 0 128 41 128 98c0 49 -30 81 -124 94l-36 5c-131 18 -205 81 -205 194c0 123 90 205 230 205c85 0 166 -27 220 -68c5 -4 6 -8 2 -14l-48 -74c-4 -5 -9 -6 -14 -3
c-55 36 -106 53 -163 53c-69 0 -107 -38 -107 -91c0 -47 33 -79 125 -92l36 -5c131 -18 203 -80 203 -197c0 -121 -87 -211 -256 -211z" />
      <glyph d="M324 0h-98c-6 0 -10 4 -10 10v558c0 4 -2 6 -6 6h-178c-6 0 -10 4 -10 10v86c0 6 4 10 10 10h486c6 0 10 -4 10 -10v-86c0 -6 -4 -10 -10 -10h-178c-4 0 -6 -2 -6 -6v-558c0 -6 -4 -10 -10 -10z" />
      <glyph d="M321 95c78 0 133 52 133 146v429c0 6 4 10 10 10h98c6 0 10 -4 10 -10v-431c0 -158 -107 -250 -251 -250c-143 0 -250 92 -250 250v431c0 6 4 10 10 10h98c6 0 10 -4 10 -10v-429c0 -94 55 -146 132 -146z" />
      <glyph d="M323 0h-82c-6 0 -10 4 -12 10l-215 660c-2 6 2 10 8 10h97c7 0 11 -3 13 -10l152 -482h3l146 482c2 7 6 10 13 10h97c6 0 10 -4 8 -10l-216 -660c-2 -6 -6 -10 -12 -10z" />
      <glyph d="M633 0h-76c-6 0 -10 4 -12 10l-130 465h-2l-131 -465c-2 -6 -6 -10 -12 -10h-75c-6 0 -10 4 -12 10l-167 660c-1 6 1 10 8 10h94c7 0 11 -4 12 -10l108 -458h2l127 458c2 6 6 10 12 10h70c7 0 10 -4 12 -10l130 -458h2l105 458c1 7 6 10 12 10h93c7 0 9 -4 8 -10
l-166 -660c-1 -6 -6 -10 -12 -10z" />
      <glyph d="M549 0h-109c-8 0 -12 3 -16 10l-137 231h-2l-138 -231c-4 -7 -8 -10 -16 -10h-108c-7 0 -10 6 -6 13l203 339l-188 315c-4 7 -1 13 6 13h108c8 0 12 -3 16 -10l123 -206h2l123 206c4 7 8 10 16 10h108c7 0 10 -6 6 -13l-188 -315l203 -339c4 -7 1 -13 -6 -13z" />
      <glyph d="M317 0h-98c-6 0 -10 4 -10 10v268l-197 392c-2 5 1 10 8 10h101c6 0 11 -3 14 -10l133 -264h3l134 264c3 7 7 10 14 10h97c8 0 10 -5 8 -10l-197 -392v-268c0 -6 -4 -10 -10 -10z" />
      <glyph d="M478 0h-423c-6 0 -10 4 -10 10v86c0 4 1 7 3 11l307 465v2h-289c-6 0 -10 4 -10 10v86c0 6 4 10 10 10h412c6 0 10 -4 10 -10v-86c0 -4 -1 -7 -3 -10l-307 -466v-2h300c6 0 10 -4 10 -10v-86c0 -6 -4 -10 -10 -10z" />
      <glyph d="M239 -84h-167c-6 0 -10 4 -10 10v804c0 6 4 10 10 10h167c6 0 10 -4 10 -10v-66c0 -6 -4 -10 -10 -10h-68c-4 0 -6 -2 -6 -6v-640c0 -4 2 -6 6 -6h68c6 0 10 -4 10 -10v-66c0 -6 -4 -10 -10 -10z" />
      <glyph d="M364 -11h-75c-7 0 -11 3 -13 10l-222 682c-2 6 1 10 7 10h75c7 0 11 -3 13 -10l222 -682c2 -6 -1 -10 -7 -10z" />
      <glyph d="M208 -84h-167c-6 0 -10 4 -10 10v66c0 6 4 10 10 10h68c4 0 6 2 6 6v640c0 4 -2 6 -6 6h-68c-6 0 -10 4 -10 10v66c0 6 4 10 10 10h167c6 0 10 -4 10 -10v-804c0 -6 -4 -10 -10 -10z" />
      <glyph d="M487 263h-83c-7 0 -11 3 -14 10l-115 270h-2l-115 -270c-3 -7 -7 -10 -13 -10h-83c-6 0 -9 4 -6 10l173 397c3 6 7 10 14 10h62c7 0 11 -4 14 -10l174 -397c3 -6 0 -10 -6 -10z" />
      <glyph d="M492 -136h-492v66h492v-66z" />
      <glyph d="M298 555h-67c-9 0 -14 3 -20 10l-95 125c-4 5 -1 10 5 10h91c8 0 14 -3 18 -10l74 -125c3 -6 0 -10 -6 -10z" />
      <glyph d="M444 0h-84c-6 0 -10 4 -10 10v35h-1c-23 -33 -68 -56 -136 -56c-88 0 -162 46 -162 147c0 105 74 153 193 153h98c4 0 6 2 6 6v23c0 55 -26 80 -107 80c-54 0 -87 -15 -110 -33c-5 -4 -11 -3 -14 2l-37 66c-3 5 -2 10 2 13c39 28 92 47 171 47c147 0 201 -50 201 -168
v-315c0 -6 -4 -10 -10 -10zM241 80c69 0 107 27 107 82v37c0 4 -2 6 -6 6h-80c-72 0 -104 -20 -104 -65c0 -40 29 -60 83 -60z" />
      <glyph d="M314 -11c-65 0 -105 24 -128 57h-1v-36c0 -6 -4 -10 -10 -10h-92c-6 0 -10 4 -10 10v660c0 6 4 10 10 10h92c6 0 10 -4 10 -10v-234h1c23 33 63 57 128 57c82 0 142 -39 167 -116c12 -37 17 -71 17 -136s-5 -99 -17 -136c-25 -77 -85 -116 -167 -116zM285 89
c45 0 76 22 89 62c7 22 10 46 10 90s-3 68 -10 90c-13 40 -44 62 -89 62c-46 0 -77 -22 -90 -62c-7 -22 -10 -46 -10 -90s3 -68 10 -90c13 -40 44 -62 90 -62z" />
      <glyph d="M261 -11c-97 0 -171 47 -199 133c-10 30 -15 68 -15 119s5 89 15 119c28 86 102 133 199 133c72 0 129 -29 167 -75c3 -4 4 -10 -1 -14l-63 -55c-5 -4 -10 -3 -14 2c-24 27 -49 42 -89 42c-43 0 -76 -21 -90 -63c-8 -24 -10 -52 -10 -89s2 -66 10 -90
c14 -41 47 -62 90 -62c40 0 65 15 89 42c4 5 9 5 14 1l63 -55c5 -4 4 -9 1 -14c-38 -45 -95 -74 -167 -74z" />
      <glyph d="M462 0h-92c-6 0 -10 4 -10 10v36h-1c-23 -33 -63 -57 -128 -57c-82 0 -142 39 -167 116c-12 37 -17 71 -17 136s5 99 17 136c25 77 85 116 167 116c65 0 105 -24 128 -57h1v234c0 6 4 10 10 10h92c6 0 10 -4 10 -10v-660c0 -6 -4 -10 -10 -10zM260 89c46 0 77 22 90 62
c7 22 10 46 10 90s-3 68 -10 90c-13 40 -44 62 -90 62c-45 0 -76 -22 -89 -62c-7 -22 -10 -46 -10 -90s3 -68 10 -90c13 -40 44 -62 89 -62z" />
      <glyph d="M265 -11c-102 0 -174 50 -201 134c-10 31 -17 68 -17 118s6 88 16 119c27 84 101 133 197 133c99 0 171 -51 198 -133c11 -34 16 -67 16 -145c0 -6 -4 -10 -11 -10h-297c-4 0 -6 -2 -6 -6c0 -14 3 -26 7 -37c16 -47 54 -73 108 -73s89 20 113 46c5 5 10 6 15 2l59 -52
c5 -4 5 -9 1 -14c-41 -48 -109 -82 -198 -82zM361 295c0 17 -2 29 -6 41c-13 39 -49 62 -94 62c-46 0 -82 -23 -95 -62c-4 -12 -6 -24 -6 -41c0 -4 2 -6 6 -6h189c4 0 6 2 6 6z" />
      <glyph d="M190 0h-92c-6 0 -10 4 -10 10v379c0 4 -2 6 -6 6h-32c-6 0 -10 4 -10 10v67c0 6 4 10 10 10h32c4 0 6 2 6 6v31c0 112 55 161 160 161h44c6 0 10 -4 10 -10v-80c0 -6 -4 -10 -10 -10h-31c-50 0 -61 -12 -61 -59v-33c0 -4 2 -6 6 -6h86c6 0 10 -4 10 -10v-67
c0 -6 -4 -10 -10 -10h-86c-4 0 -6 -2 -6 -6v-379c0 -6 -4 -10 -10 -10z" />
      <glyph d="M238 -191c-67 0 -138 28 -175 72c-4 5 -4 9 1 14l59 59c5 5 10 5 15 0c30 -29 65 -45 105 -45c74 0 108 40 108 115v45h-1c-22 -34 -63 -56 -125 -56c-81 0 -139 41 -164 117c-12 37 -16 70 -16 123s4 85 16 122c25 77 83 118 164 118c62 0 103 -22 125 -57h1v36
c0 6 4 10 10 10h92c6 0 10 -4 10 -10v-442c0 -138 -77 -221 -225 -221zM254 112c46 0 73 22 86 62c8 22 11 46 11 79c0 32 -3 56 -11 79c-13 39 -40 61 -86 61c-45 0 -72 -22 -85 -61c-8 -23 -11 -47 -11 -79c0 -33 3 -57 11 -79c13 -40 40 -62 85 -62z" />
      <glyph d="M470 0h-92c-6 0 -10 4 -10 10v278c0 62 -31 105 -91 105c-58 0 -92 -43 -92 -105v-278c0 -6 -4 -10 -10 -10h-92c-6 0 -10 4 -10 10v660c0 6 4 10 10 10h92c6 0 10 -4 10 -10v-233h1c21 30 63 56 127 56c103 0 167 -76 167 -179v-304c0 -6 -4 -10 -10 -10z" />
      <glyph d="M175 573h-92c-6 0 -10 4 -10 10v87c0 6 4 10 10 10h92c6 0 10 -4 10 -10v-87c0 -6 -4 -10 -10 -10zM175 0h-92c-6 0 -10 4 -10 10v462c0 6 4 10 10 10h92c6 0 10 -4 10 -10v-462c0 -6 -4 -10 -10 -10z" />
      <glyph d="M175 573h-92c-6 0 -10 4 -10 10v87c0 6 4 10 10 10h92c6 0 10 -4 10 -10v-87c0 -6 -4 -10 -10 -10zM23 -180h-28c-6 0 -10 4 -10 10v80c0 6 4 10 10 10h22c40 0 56 13 56 57v495c0 6 4 10 10 10h92c6 0 10 -4 10 -10v-493c0 -111 -57 -159 -162 -159z" />
      <glyph d="M493 0h-105c-7 0 -12 3 -16 10l-122 202l-65 -75v-127c0 -6 -4 -10 -10 -10h-92c-6 0 -10 4 -10 10v660c0 6 4 10 10 10h92c6 0 10 -4 10 -10v-392l165 194c6 7 11 10 19 10h102c6 0 8 -6 4 -10l-153 -176l176 -286c3 -4 1 -10 -5 -10z" />
      <glyph d="M247 -6h-44c-94 0 -132 45 -132 138v538c0 6 4 10 10 10h92c6 0 10 -4 10 -10v-532c0 -33 13 -44 42 -44h22c6 0 10 -4 10 -10v-80c0 -6 -4 -10 -10 -10z" />
      <glyph d="M765 0h-92c-6 0 -10 4 -10 10v278c0 62 -31 105 -91 105c-58 0 -92 -43 -92 -105v-278c0 -6 -4 -10 -10 -10h-92c-6 0 -10 4 -10 10v278c0 62 -31 105 -91 105c-58 0 -92 -43 -92 -105v-278c0 -6 -4 -10 -10 -10h-92c-6 0 -10 4 -10 10v462c0 6 4 10 10 10h92
c6 0 10 -4 10 -10v-35h1c21 30 63 56 127 56c57 0 103 -23 132 -64h1c37 40 85 64 154 64c112 0 175 -76 175 -179v-304c0 -6 -4 -10 -10 -10z" />
      <glyph d="M470 0h-92c-6 0 -10 4 -10 10v278c0 62 -31 105 -91 105c-58 0 -92 -43 -92 -105v-278c0 -6 -4 -10 -10 -10h-92c-6 0 -10 4 -10 10v462c0 6 4 10 10 10h92c6 0 10 -4 10 -10v-35h1c21 30 63 56 127 56c103 0 167 -76 167 -179v-304c0 -6 -4 -10 -10 -10z" />
      <glyph d="M262 -11c-98 0 -172 49 -199 133c-11 34 -16 66 -16 119s5 85 16 119c27 84 101 133 199 133c97 0 171 -49 198 -133c11 -34 16 -66 16 -119s-5 -85 -16 -119c-27 -84 -101 -133 -198 -133zM262 89c45 0 76 23 90 63c8 25 10 48 10 89s-2 63 -10 89c-14 40 -45 63 -90 63
s-77 -23 -91 -63c-8 -26 -10 -48 -10 -89s2 -64 10 -89c14 -40 46 -63 91 -63z" />
      <glyph d="M175 -180h-92c-6 0 -10 4 -10 10v642c0 6 4 10 10 10h92c6 0 10 -4 10 -10v-36h1c23 33 63 57 128 57c82 0 142 -39 167 -116c12 -37 17 -71 17 -136s-5 -99 -17 -136c-25 -77 -85 -116 -167 -116c-65 0 -105 24 -128 57h-1v-216c0 -6 -4 -10 -10 -10zM285 89
c45 0 76 22 89 62c7 22 10 46 10 90s-3 68 -10 90c-13 40 -44 62 -89 62c-46 0 -77 -22 -90 -62c-7 -22 -10 -46 -10 -90s3 -68 10 -90c13 -40 44 -62 90 -62z" />
      <glyph d="M462 -180h-92c-6 0 -10 4 -10 10v216h-1c-23 -33 -63 -57 -128 -57c-82 0 -142 39 -167 116c-12 37 -17 71 -17 136s5 99 17 136c25 77 85 116 167 116c65 0 105 -24 128 -57h1v36c0 6 4 10 10 10h92c6 0 10 -4 10 -10v-642c0 -6 -4 -10 -10 -10zM260 89
c46 0 77 22 90 62c7 22 10 46 10 90s-3 68 -10 90c-13 40 -44 62 -90 62c-45 0 -76 -22 -89 -62c-7 -22 -10 -46 -10 -90s3 -68 10 -90c13 -40 44 -62 89 -62z" />
      <glyph d="M175 0h-92c-6 0 -10 4 -10 10v462c0 6 4 10 10 10h92c6 0 10 -4 10 -10v-41h1c23 37 64 62 125 62c38 0 76 -15 101 -40c5 -5 6 -9 2 -14l-53 -67c-4 -5 -9 -6 -14 -2c-22 14 -45 23 -71 23c-63 0 -91 -45 -91 -122v-261c0 -6 -4 -10 -10 -10z" />
      <glyph d="M251 -11c-99 0 -167 39 -207 76c-4 4 -4 10 0 14l57 60c4 4 10 4 14 0c35 -32 91 -55 141 -55c59 0 89 24 89 57c0 29 -17 47 -80 53l-52 5c-98 10 -148 60 -148 142c0 93 67 152 187 152c75 0 138 -25 181 -59c5 -4 5 -10 2 -14l-49 -59c-4 -5 -9 -5 -14 -2
c-30 21 -78 40 -126 40s-73 -21 -73 -50c0 -28 17 -45 79 -51l52 -5c101 -10 149 -62 149 -141c0 -96 -70 -163 -202 -163z" />
      <glyph d="M262 -6h-48c-97 0 -134 47 -134 141v254c0 4 -2 6 -6 6h-32c-6 0 -10 4 -10 10v67c0 6 4 10 10 10h32c4 0 6 2 6 6v132c0 6 4 10 10 10h92c6 0 10 -4 10 -10v-132c0 -4 2 -6 6 -6h64c6 0 10 -4 10 -10v-67c0 -6 -4 -10 -10 -10h-64c-4 0 -6 -2 -6 -6v-250
c0 -34 14 -45 45 -45h25c6 0 10 -4 10 -10v-80c0 -6 -4 -10 -10 -10z" />
      <glyph d="M461 0h-92c-6 0 -10 4 -10 10v35h-1c-26 -33 -64 -56 -125 -56c-103 0 -166 76 -166 179v304c0 6 4 10 10 10h92c6 0 10 -4 10 -10v-278c0 -62 29 -105 90 -105c57 0 90 43 90 104v279c0 6 4 10 10 10h92c6 0 10 -4 10 -10v-462c0 -6 -4 -10 -10 -10z" />
      <glyph d="M283 0h-80c-7 0 -11 4 -13 10l-170 462c-2 6 2 10 8 10h98c6 0 10 -4 12 -10l106 -313h2l104 313c2 6 6 10 12 10h96c6 0 10 -4 8 -10l-170 -462c-2 -6 -6 -10 -13 -10z" />
      <glyph d="M565 0h-82c-6 0 -10 4 -12 10l-93 308h-2l-94 -308c-2 -6 -6 -10 -12 -10h-82c-6 0 -10 4 -12 10l-152 462c-2 6 1 10 7 10h96c7 0 11 -3 13 -10l93 -318h2l92 318c2 6 7 10 13 10h72c6 0 11 -4 13 -10l98 -318h2l88 318c2 7 6 10 13 10h96c6 0 9 -4 7 -10l-152 -462
c-2 -6 -6 -10 -12 -10z" />
      <glyph d="M464 0h-100c-7 0 -11 3 -16 10l-100 147h-1l-100 -147c-5 -7 -9 -10 -17 -10h-99c-9 0 -11 5 -8 10l163 240l-151 222c-3 5 -1 10 8 10h100c7 0 12 -2 17 -10l87 -130h1l88 130c5 7 9 10 16 10h100c9 0 11 -5 8 -10l-151 -222l163 -240c3 -5 1 -10 -8 -10z" />
      <glyph d="M121 -180h-31c-6 0 -10 4 -10 10v80c0 6 4 10 10 10h18c38 0 57 17 72 57l14 41l-176 454c-2 6 2 10 8 10h99c6 0 10 -4 12 -10l109 -315h2l104 315c2 6 6 10 12 10h95c6 0 10 -4 8 -10l-184 -502c-42 -114 -82 -150 -162 -150z" />
      <glyph d="M423 0h-361c-6 0 -10 4 -10 10v73c0 4 1 7 3 10l246 289v2h-226c-6 0 -10 4 -10 10v78c0 6 4 10 10 10h348c6 0 10 -4 10 -10v-78c0 -5 -1 -7 -3 -10l-243 -284v-2h236c6 0 10 -4 10 -10v-78c0 -6 -4 -10 -10 -10z" />
      <glyph d="M306 -84h-58c-75 0 -119 42 -119 120v168c0 52 -21 77 -68 77c-6 0 -10 4 -10 10v79c0 6 4 10 10 10c47 0 68 25 68 77v163c0 78 44 120 119 120h58c6 0 10 -4 10 -10v-66c0 -6 -4 -10 -10 -10h-31c-28 0 -43 -13 -43 -42v-158c0 -75 -19 -106 -70 -123v-1
c51 -17 70 -48 70 -123v-163c0 -29 15 -42 43 -42h31c6 0 10 -4 10 -10v-66c0 -6 -4 -10 -10 -10z" />
      <glyph d="M201 -84h-72c-6 0 -10 4 -10 10v804c0 6 4 10 10 10h72c6 0 10 -4 10 -10v-804c0 -6 -4 -10 -10 -10z" />
      <glyph d="M98 -84h-57c-6 0 -10 4 -10 10v66c0 6 4 10 10 10h31c28 0 42 13 42 42v163c0 75 20 106 71 123v1c-51 17 -71 48 -71 123v158c0 29 -14 42 -42 42h-31c-6 0 -10 4 -10 10v66c0 6 4 10 10 10h57c76 0 119 -42 119 -120v-163c0 -52 21 -77 68 -77c6 0 10 -4 10 -10v-79
c0 -6 -4 -10 -10 -10c-47 0 -68 -25 -68 -77v-168c0 -78 -43 -120 -119 -120z" />
      <glyph d="M359 200c-41 0 -76 19 -104 36c-23 14 -44 25 -67 25c-33 0 -51 -18 -69 -50c-3 -5 -9 -6 -15 -2l-52 31c-6 4 -6 7 -3 14c27 60 80 97 140 97c41 0 77 -18 105 -35c23 -14 44 -25 66 -25c33 0 52 18 70 50c3 5 9 6 15 2l52 -31c6 -4 6 -7 3 -14
c-27 -60 -80 -98 -141 -98z" />
      <glyph />
      <glyph d="M18 10l233 660c2 6 6 10 13 10h92c7 0 11 -4 13 -10l230 -660c2 -6 0 -10 -7 -10h-98c-7 0 -11 3 -13 10l-45 132h-256l-45 -132c-2 -7 -6 -10 -13 -10h-97c-7 0 -9 4 -7 10zM216 247h184l-90 264h-3zM342 761h-72c-7 0 -11 1 -18 8l-116 109c-5 5 -2 10 4 10h98
c9 0 14 -4 19 -10l89 -107c4 -5 2 -10 -4 -10z" />
      <glyph d="M18 10l233 660c2 6 6 10 13 10h92c7 0 11 -4 13 -10l230 -660c2 -6 0 -10 -7 -10h-98c-7 0 -11 3 -13 10l-45 132h-256l-45 -132c-2 -7 -6 -10 -13 -10h-97c-7 0 -9 4 -7 10zM216 247h184l-90 264h-3zM347 761h-71c-6 0 -8 5 -4 10l88 107c5 6 10 10 19 10h98
c6 0 10 -5 5 -10l-117 -109c-7 -7 -11 -8 -18 -8z" />
      <glyph d="M18 10l233 660c2 6 6 10 13 10h92c7 0 11 -4 13 -10l230 -660c2 -6 0 -10 -7 -10h-98c-7 0 -11 3 -13 10l-45 132h-256l-45 -132c-2 -7 -6 -10 -13 -10h-97c-7 0 -9 4 -7 10zM216 247h184l-90 264h-3zM450 753h-63c-9 0 -13 2 -21 10l-57 59h-2l-57 -59
c-8 -8 -12 -10 -21 -10h-63c-6 0 -8 5 -4 10l98 125c5 7 10 10 18 10h60c8 0 13 -3 18 -10l98 -125c4 -5 2 -10 -4 -10z" />
      <glyph d="M18 10l233 660c2 6 6 10 13 10h92c7 0 11 -4 13 -10l230 -660c2 -6 0 -10 -7 -10h-98c-7 0 -11 3 -13 10l-45 132h-256l-45 -132c-2 -7 -6 -10 -13 -10h-97c-7 0 -9 4 -7 10zM216 247h184l-90 264h-3zM367 757c-26 0 -44 8 -67 20c-20 11 -36 18 -56 18
c-29 0 -48 -15 -67 -31c-5 -4 -9 -2 -9 2v61c0 8 2 12 8 19c19 20 44 34 72 34c26 0 44 -8 67 -20c20 -11 36 -18 57 -18c28 0 47 15 66 31c5 4 9 2 9 -2v-61c0 -8 -2 -12 -8 -19c-19 -20 -44 -34 -72 -34z" />
      <glyph d="M18 10l233 660c2 6 6 10 13 10h92c7 0 11 -4 13 -10l230 -660c2 -6 0 -10 -7 -10h-98c-7 0 -11 3 -13 10l-45 132h-256l-45 -132c-2 -7 -6 -10 -13 -10h-97c-7 0 -9 4 -7 10zM216 247h184l-90 264h-3zM444 769h-73c-6 0 -10 4 -10 10v87c0 6 4 10 10 10h73
c6 0 10 -4 10 -10v-87c0 -6 -4 -10 -10 -10zM244 769h-73c-6 0 -10 4 -10 10v87c0 6 4 10 10 10h73c6 0 10 -4 10 -10v-87c0 -6 -4 -10 -10 -10z" />
      <glyph d="M18 10l233 660c2 6 6 10 13 10h92c7 0 11 -4 13 -10l230 -660c2 -6 0 -10 -7 -10h-98c-7 0 -11 3 -13 10l-45 132h-256l-45 -132c-2 -7 -6 -10 -13 -10h-97c-7 0 -9 4 -7 10zM216 247h184l-90 264h-3zM439 782h-263c-6 0 -10 4 -10 10v61c0 6 4 10 10 10h263
c6 0 10 -4 10 -10v-61c0 -6 -4 -10 -10 -10z" />
      <glyph d="M18 10l233 660c2 6 6 10 13 10h92c7 0 11 -4 13 -10l230 -660c2 -6 0 -10 -7 -10h-98c-7 0 -11 3 -13 10l-45 132h-256l-45 -132c-2 -7 -6 -10 -13 -10h-97c-7 0 -9 4 -7 10zM216 247h184l-90 264h-3zM308 754c-86 0 -140 51 -145 122c0 6 3 10 9 10h49c6 0 10 -3 12 -10
c10 -31 34 -46 75 -46s65 15 75 46c2 7 6 10 12 10h49c6 0 9 -4 9 -10c-5 -71 -59 -122 -145 -122z" />
      <glyph d="M18 10l233 660c2 6 6 10 13 10h92c7 0 11 -4 13 -10l230 -660c2 -6 0 -10 -7 -10h-98c-7 0 -11 3 -13 10l-45 132h-256l-45 -132c-2 -7 -6 -10 -13 -10h-97c-7 0 -9 4 -7 10zM216 247h184l-90 264h-3zM308 721c-57 0 -99 42 -99 99s42 100 99 100s99 -43 99 -100
s-42 -99 -99 -99zM308 769c28 0 49 22 49 51s-21 51 -49 51s-49 -22 -49 -51s21 -51 49 -51z" />
      <glyph d="M334 773h-68c-6 0 -8 5 -4 10l91 95c7 7 13 10 23 10h96c6 0 8 -6 3 -10l-119 -97c-8 -6 -13 -8 -22 -8zM591 0h-97c-7 0 -11 4 -13 10l-45 132h-256l-45 -132c-2 -7 -6 -10 -12 -10h-97c-7 0 -10 4 -8 10l200 565c1 5 4 8 9 9c-11 16 -17 37 -17 59c0 57 43 100 99 100
c57 0 100 -43 100 -100c0 -22 -7 -42 -18 -58c5 -1 8 -5 10 -10l198 -565c2 -6 -2 -10 -8 -10zM309 592c29 0 50 22 50 51s-21 51 -50 51c-28 0 -49 -22 -49 -51s21 -51 49 -51zM307 511l-91 -264h184l-90 264h-3z" />
      <glyph d="M515 -190c-56 0 -95 30 -95 88c0 41 25 72 69 102c-3 1 -6 4 -8 10l-45 132h-256l-45 -132c-2 -7 -6 -10 -12 -10h-97c-7 0 -10 4 -8 10l233 660c2 6 6 10 13 10h92c7 0 11 -4 13 -10l230 -660c1 -4 0 -8 -4 -10c-60 -35 -85 -59 -85 -83c0 -16 9 -26 24 -26
c9 0 16 3 26 8c6 3 10 2 13 -4l24 -50c3 -5 1 -10 -4 -13c-21 -14 -51 -22 -78 -22zM307 511l-91 -264h184l-90 264h-3z" />
      <glyph d="M867 0h-426c-6 0 -10 4 -10 10v126c0 4 -2 6 -6 6h-209l-65 -132c-3 -7 -7 -10 -13 -10h-112c-7 0 -10 4 -7 10l334 660c3 6 7 10 14 10h500c6 0 10 -4 10 -10v-86c0 -6 -4 -10 -10 -10h-312c-4 0 -6 -2 -6 -6v-166c0 -4 2 -6 6 -6h263c6 0 10 -4 10 -10v-86
c0 -6 -4 -10 -10 -10h-263c-4 0 -6 -2 -6 -6v-172c0 -4 2 -6 6 -6h312c6 0 10 -4 10 -10v-86c0 -6 -4 -10 -10 -10zM429 574l-161 -327h157c4 0 6 2 6 6v321h-2z" />
      <glyph d="M502 761h-71c-6 0 -8 5 -4 10l88 107c5 6 10 10 19 10h98c6 0 10 -5 5 -10l-117 -109c-7 -7 -11 -8 -18 -8zM867 0h-426c-6 0 -10 4 -10 10v126c0 4 -2 6 -6 6h-209l-65 -132c-3 -7 -7 -10 -13 -10h-112c-7 0 -10 4 -7 10l334 660c3 6 7 10 14 10h500c6 0 10 -4 10 -10
v-86c0 -6 -4 -10 -10 -10h-312c-4 0 -6 -2 -6 -6v-166c0 -4 2 -6 6 -6h263c6 0 10 -4 10 -10v-86c0 -6 -4 -10 -10 -10h-263c-4 0 -6 -2 -6 -6v-172c0 -4 2 -6 6 -6h312c6 0 10 -4 10 -10v-86c0 -6 -4 -10 -10 -10zM429 574l-161 -327h157c4 0 6 2 6 6v321h-2z" />
      <glyph d="M73 156c-14 42 -18 76 -18 184s4 142 18 184c35 111 121 167 236 167c109 0 191 -56 230 -146c2 -5 0 -10 -5 -12l-85 -41c-6 -3 -11 0 -13 5c-22 48 -60 88 -127 88c-65 0 -103 -35 -122 -90c-9 -28 -12 -55 -12 -155s3 -127 12 -155c19 -55 57 -90 122 -90
c67 0 105 40 127 88c2 5 7 8 13 5l85 -41c5 -2 7 -7 5 -12c-39 -90 -121 -146 -230 -146c-115 0 -201 56 -236 167zM321 761h-71c-6 0 -8 5 -4 10l88 107c5 6 10 10 19 10h98c6 0 10 -5 5 -10l-117 -109c-7 -7 -11 -8 -18 -8z" />
      <glyph d="M73 156c-14 42 -18 76 -18 184s4 142 18 184c35 111 121 167 236 167c109 0 191 -56 230 -146c2 -5 0 -10 -5 -12l-85 -41c-6 -3 -11 0 -13 5c-22 48 -60 88 -127 88c-65 0 -103 -35 -122 -90c-9 -28 -12 -55 -12 -155s3 -127 12 -155c19 -55 57 -90 122 -90
c67 0 105 40 127 88c2 5 7 8 13 5l85 -41c5 -2 7 -7 5 -12c-39 -90 -121 -146 -230 -146c-115 0 -201 56 -236 167zM450 753h-63c-9 0 -13 2 -21 10l-57 59h-2l-57 -59c-8 -8 -12 -10 -21 -10h-63c-6 0 -8 5 -4 10l98 125c5 7 10 10 18 10h60c8 0 13 -3 18 -10l98 -125
c4 -5 2 -10 -4 -10z" />
      <glyph d="M73 156c-14 42 -18 76 -18 184s4 142 18 184c35 111 121 167 236 167c109 0 191 -56 230 -146c2 -5 0 -10 -5 -12l-85 -41c-6 -3 -11 0 -13 5c-22 48 -60 88 -127 88c-65 0 -103 -35 -122 -90c-9 -28 -12 -55 -12 -155s3 -127 12 -155c19 -55 57 -90 122 -90
c67 0 105 40 127 88c2 5 7 8 13 5l85 -41c5 -2 7 -7 5 -12c-39 -90 -121 -146 -230 -146c-115 0 -201 56 -236 167zM338 751h-60c-8 0 -13 3 -18 10l-98 125c-4 5 -2 10 4 10h63c9 0 13 -2 21 -10l57 -59h2l57 59c8 8 12 10 21 10h63c6 0 8 -5 4 -10l-98 -125
c-5 -7 -10 -10 -18 -10z" />
      <glyph d="M354 769h-93c-6 0 -10 4 -10 10v87c0 6 4 10 10 10h93c6 0 10 -4 10 -10v-87c0 -6 -4 -10 -10 -10zM73 156c-14 42 -18 76 -18 184s4 142 18 184c35 111 121 167 236 167c109 0 191 -56 230 -146c2 -5 0 -10 -5 -12l-85 -41c-6 -3 -11 0 -13 5c-22 48 -60 88 -127 88
c-65 0 -103 -35 -122 -90c-9 -28 -12 -55 -12 -155s3 -127 12 -155c19 -55 57 -90 122 -90c67 0 105 40 127 88c2 5 7 8 13 5l85 -41c5 -2 7 -7 5 -12c-39 -90 -121 -146 -230 -146c-115 0 -201 56 -236 167z" />
      <glyph d="M288 -155h-78c-6 0 -9 4 -7 10l55 137c-89 17 -155 68 -185 164c-14 42 -18 76 -18 184s4 142 18 184c35 111 121 167 236 167c109 0 191 -56 230 -146c2 -5 0 -10 -5 -12l-85 -41c-6 -3 -11 0 -13 5c-22 48 -60 88 -127 88c-65 0 -103 -35 -122 -90
c-9 -28 -12 -55 -12 -155s3 -127 12 -155c19 -55 57 -90 122 -90c67 0 105 40 127 88c2 5 7 8 13 5l85 -41c5 -2 7 -7 5 -12c-34 -78 -100 -131 -192 -144l-43 -136c-2 -7 -8 -10 -16 -10z" />
      <glyph d="M326 751h-60c-8 0 -13 3 -18 10l-98 125c-4 5 -2 10 4 10h63c9 0 13 -2 21 -10l57 -59h2l57 59c8 8 12 10 21 10h63c6 0 8 -5 4 -10l-98 -125c-5 -7 -10 -10 -18 -10zM75 10v660c0 6 4 10 10 10h243c117 0 195 -52 227 -151c11 -34 17 -71 17 -189s-6 -155 -17 -189
c-32 -99 -110 -151 -227 -151h-243c-6 0 -10 4 -10 10zM193 112c0 -4 2 -6 6 -6h101c75 0 121 25 141 86c7 19 12 50 12 148c0 99 -5 129 -12 148c-20 61 -66 86 -141 86h-101c-4 0 -6 -2 -6 -6v-456z" />
      <glyph d="M328 0h-243c-6 0 -10 4 -10 10v282c0 4 -2 6 -6 6h-26c-6 0 -10 4 -10 10v70c0 6 4 10 10 10h26c4 0 6 2 6 6v276c0 6 4 10 10 10h243c117 0 195 -52 227 -151c11 -34 17 -71 17 -189s-6 -155 -17 -189c-32 -99 -110 -151 -227 -151zM300 106c75 0 121 25 141 86
c7 19 12 50 12 148c0 99 -5 129 -12 148c-20 61 -66 86 -141 86h-101c-4 0 -6 -2 -6 -6v-174c0 -4 2 -6 6 -6h97c6 0 10 -4 10 -10v-70c0 -6 -4 -10 -10 -10h-97c-4 0 -6 -2 -6 -6v-180c0 -4 2 -6 6 -6h101z" />
      <glyph d="M328 0h-243c-6 0 -10 4 -10 10v282c0 4 -2 6 -6 6h-26c-6 0 -10 4 -10 10v70c0 6 4 10 10 10h26c4 0 6 2 6 6v276c0 6 4 10 10 10h243c117 0 195 -52 227 -151c11 -34 17 -71 17 -189s-6 -155 -17 -189c-32 -99 -110 -151 -227 -151zM300 106c75 0 121 25 141 86
c7 19 12 50 12 148c0 99 -5 129 -12 148c-20 61 -66 86 -141 86h-101c-4 0 -6 -2 -6 -6v-174c0 -4 2 -6 6 -6h97c6 0 10 -4 10 -10v-70c0 -6 -4 -10 -10 -10h-97c-4 0 -6 -2 -6 -6v-180c0 -4 2 -6 6 -6h101z" />
      <glyph d="M354 761h-72c-7 0 -11 1 -18 8l-116 109c-5 5 -2 10 4 10h98c9 0 14 -4 19 -10l89 -107c4 -5 2 -10 -4 -10zM75 10v660c0 6 4 10 10 10h426c6 0 10 -4 10 -10v-86c0 -6 -4 -10 -10 -10h-312c-4 0 -6 -2 -6 -6v-166c0 -4 2 -6 6 -6h263c6 0 10 -4 10 -10v-86
c0 -6 -4 -10 -10 -10h-263c-4 0 -6 -2 -6 -6v-172c0 -4 2 -6 6 -6h312c6 0 10 -4 10 -10v-86c0 -6 -4 -10 -10 -10h-426c-6 0 -10 4 -10 10z" />
      <glyph d="M304 761h-71c-6 0 -8 5 -4 10l88 107c5 6 10 10 19 10h98c6 0 10 -5 5 -10l-117 -109c-7 -7 -11 -8 -18 -8zM75 10v660c0 6 4 10 10 10h426c6 0 10 -4 10 -10v-86c0 -6 -4 -10 -10 -10h-312c-4 0 -6 -2 -6 -6v-166c0 -4 2 -6 6 -6h263c6 0 10 -4 10 -10v-86
c0 -6 -4 -10 -10 -10h-263c-4 0 -6 -2 -6 -6v-172c0 -4 2 -6 6 -6h312c6 0 10 -4 10 -10v-86c0 -6 -4 -10 -10 -10h-426c-6 0 -10 4 -10 10z" />
      <glyph d="M75 10v660c0 6 4 10 10 10h426c6 0 10 -4 10 -10v-86c0 -6 -4 -10 -10 -10h-312c-4 0 -6 -2 -6 -6v-166c0 -4 2 -6 6 -6h263c6 0 10 -4 10 -10v-86c0 -6 -4 -10 -10 -10h-263c-4 0 -6 -2 -6 -6v-172c0 -4 2 -6 6 -6h312c6 0 10 -4 10 -10v-86c0 -6 -4 -10 -10 -10h-426
c-6 0 -10 4 -10 10zM441 753h-63c-9 0 -13 2 -21 10l-57 59h-2l-57 -59c-8 -8 -12 -10 -21 -10h-63c-6 0 -8 5 -4 10l98 125c5 7 10 10 18 10h60c8 0 13 -3 18 -10l98 -125c4 -5 2 -10 -4 -10z" />
      <glyph d="M327 751h-60c-8 0 -13 3 -18 10l-98 125c-4 5 -2 10 4 10h63c9 0 13 -2 21 -10l57 -59h2l57 59c8 8 12 10 21 10h63c6 0 8 -5 4 -10l-98 -125c-5 -7 -10 -10 -18 -10zM75 10v660c0 6 4 10 10 10h426c6 0 10 -4 10 -10v-86c0 -6 -4 -10 -10 -10h-312c-4 0 -6 -2 -6 -6
v-166c0 -4 2 -6 6 -6h263c6 0 10 -4 10 -10v-86c0 -6 -4 -10 -10 -10h-263c-4 0 -6 -2 -6 -6v-172c0 -4 2 -6 6 -6h312c6 0 10 -4 10 -10v-86c0 -6 -4 -10 -10 -10h-426c-6 0 -10 4 -10 10z" />
      <glyph d="M433 769h-73c-6 0 -10 4 -10 10v87c0 6 4 10 10 10h73c6 0 10 -4 10 -10v-87c0 -6 -4 -10 -10 -10zM233 769h-73c-6 0 -10 4 -10 10v87c0 6 4 10 10 10h73c6 0 10 -4 10 -10v-87c0 -6 -4 -10 -10 -10zM75 10v660c0 6 4 10 10 10h426c6 0 10 -4 10 -10v-86
c0 -6 -4 -10 -10 -10h-312c-4 0 -6 -2 -6 -6v-166c0 -4 2 -6 6 -6h263c6 0 10 -4 10 -10v-86c0 -6 -4 -10 -10 -10h-263c-4 0 -6 -2 -6 -6v-172c0 -4 2 -6 6 -6h312c6 0 10 -4 10 -10v-86c0 -6 -4 -10 -10 -10h-426c-6 0 -10 4 -10 10z" />
      <glyph d="M427 782h-263c-6 0 -10 4 -10 10v61c0 6 4 10 10 10h263c6 0 10 -4 10 -10v-61c0 -6 -4 -10 -10 -10zM75 10v660c0 6 4 10 10 10h426c6 0 10 -4 10 -10v-86c0 -6 -4 -10 -10 -10h-312c-4 0 -6 -2 -6 -6v-166c0 -4 2 -6 6 -6h263c6 0 10 -4 10 -10v-86
c0 -6 -4 -10 -10 -10h-263c-4 0 -6 -2 -6 -6v-172c0 -4 2 -6 6 -6h312c6 0 10 -4 10 -10v-86c0 -6 -4 -10 -10 -10h-426c-6 0 -10 4 -10 10z" />
      <glyph d="M296 754c-86 0 -140 51 -145 122c0 6 3 10 9 10h49c6 0 10 -3 12 -10c10 -31 34 -46 75 -46s65 15 75 46c2 7 6 10 12 10h49c6 0 9 -4 9 -10c-5 -71 -59 -122 -145 -122zM75 10v660c0 6 4 10 10 10h426c6 0 10 -4 10 -10v-86c0 -6 -4 -10 -10 -10h-312c-4 0 -6 -2 -6 -6
v-166c0 -4 2 -6 6 -6h263c6 0 10 -4 10 -10v-86c0 -6 -4 -10 -10 -10h-263c-4 0 -6 -2 -6 -6v-172c0 -4 2 -6 6 -6h312c6 0 10 -4 10 -10v-86c0 -6 -4 -10 -10 -10h-426c-6 0 -10 4 -10 10z" />
      <glyph d="M343 769h-93c-6 0 -10 4 -10 10v87c0 6 4 10 10 10h93c6 0 10 -4 10 -10v-87c0 -6 -4 -10 -10 -10zM75 10v660c0 6 4 10 10 10h426c6 0 10 -4 10 -10v-86c0 -6 -4 -10 -10 -10h-312c-4 0 -6 -2 -6 -6v-166c0 -4 2 -6 6 -6h263c6 0 10 -4 10 -10v-86c0 -6 -4 -10 -10 -10
h-263c-4 0 -6 -2 -6 -6v-172c0 -4 2 -6 6 -6h312c6 0 10 -4 10 -10v-86c0 -6 -4 -10 -10 -10h-426c-6 0 -10 4 -10 10z" />
      <glyph d="M424 -190c-56 0 -95 30 -95 88c0 41 21 72 65 102h-309c-6 0 -10 4 -10 10v660c0 6 4 10 10 10h426c6 0 10 -4 10 -10v-86c0 -6 -4 -10 -10 -10h-312c-4 0 -6 -2 -6 -6v-166c0 -4 2 -6 6 -6h263c6 0 10 -4 10 -10v-86c0 -6 -4 -10 -10 -10h-263c-4 0 -6 -2 -6 -6v-172
c0 -4 2 -6 6 -6h312c6 0 10 -4 10 -10v-86c0 -6 -4 -10 -10 -10h-9c-60 -35 -83 -59 -83 -83c0 -16 9 -26 24 -26c9 0 15 3 25 8c6 3 11 2 14 -4l24 -50c3 -5 1 -10 -4 -13c-21 -14 -51 -22 -78 -22z" />
      <glyph d="M73 153c-14 42 -18 80 -18 187s4 145 18 187c35 108 123 164 243 164c127 0 209 -68 237 -144c2 -5 1 -11 -4 -14l-84 -37c-6 -2 -11 1 -13 5c-30 54 -71 84 -137 84c-69 0 -109 -34 -128 -89c-8 -25 -12 -59 -12 -156c0 -96 4 -131 12 -156c19 -55 59 -89 128 -89
c60 0 111 30 129 85c7 21 11 49 11 88c0 4 -2 6 -6 6h-112c-6 0 -10 4 -10 10v80c0 6 4 10 10 10h225c6 0 10 -4 10 -10v-59c0 -56 -5 -115 -16 -149c-33 -106 -123 -167 -240 -167c-120 0 -208 56 -243 164zM455 753h-63c-9 0 -13 2 -21 10l-57 59h-2l-57 -59
c-8 -8 -12 -10 -21 -10h-63c-6 0 -8 5 -4 10l98 125c5 7 10 10 18 10h60c8 0 13 -3 18 -10l98 -125c4 -5 2 -10 -4 -10z" />
      <glyph d="M313 754c-86 0 -140 51 -145 122c0 6 3 10 9 10h49c6 0 10 -3 12 -10c10 -31 34 -46 75 -46s65 15 75 46c2 7 6 10 12 10h49c6 0 9 -4 9 -10c-5 -71 -59 -122 -145 -122zM73 153c-14 42 -18 80 -18 187s4 145 18 187c35 108 123 164 243 164c127 0 209 -68 237 -144
c2 -5 1 -11 -4 -14l-84 -37c-6 -2 -11 1 -13 5c-30 54 -71 84 -137 84c-69 0 -109 -34 -128 -89c-8 -25 -12 -59 -12 -156c0 -96 4 -131 12 -156c19 -55 59 -89 128 -89c60 0 111 30 129 85c7 21 11 49 11 88c0 4 -2 6 -6 6h-112c-6 0 -10 4 -10 10v80c0 6 4 10 10 10h225
c6 0 10 -4 10 -10v-59c0 -56 -5 -115 -16 -149c-33 -106 -123 -167 -240 -167c-120 0 -208 56 -243 164z" />
      <glyph d="M359 769h-93c-6 0 -10 4 -10 10v87c0 6 4 10 10 10h93c6 0 10 -4 10 -10v-87c0 -6 -4 -10 -10 -10zM73 153c-14 42 -18 80 -18 187s4 145 18 187c35 108 123 164 243 164c127 0 209 -68 237 -144c2 -5 1 -11 -4 -14l-84 -37c-6 -2 -11 1 -13 5c-30 54 -71 84 -137 84
c-69 0 -109 -34 -128 -89c-8 -25 -12 -59 -12 -156c0 -96 4 -131 12 -156c19 -55 59 -89 128 -89c60 0 111 30 129 85c7 21 11 49 11 88c0 4 -2 6 -6 6h-112c-6 0 -10 4 -10 10v80c0 6 4 10 10 10h225c6 0 10 -4 10 -10v-59c0 -56 -5 -115 -16 -149
c-33 -106 -123 -167 -240 -167c-120 0 -208 56 -243 164z" />
      <glyph d="M271 -228c-6 0 -10 5 -10 11v153c0 6 4 10 10 10h83c6 0 10 -4 10 -10v-69c0 -8 -1 -13 -7 -19l-71 -69c-5 -5 -10 -7 -15 -7zM73 153c-14 42 -18 80 -18 187s4 145 18 187c35 108 123 164 243 164c127 0 209 -68 237 -144c2 -5 1 -11 -4 -14l-84 -37c-6 -2 -11 1 -13 5
c-30 54 -71 84 -137 84c-69 0 -109 -34 -128 -89c-8 -25 -12 -59 -12 -156c0 -96 4 -131 12 -156c19 -55 59 -89 128 -89c60 0 111 30 129 85c7 21 11 49 11 88c0 4 -2 6 -6 6h-112c-6 0 -10 4 -10 10v80c0 6 4 10 10 10h225c6 0 10 -4 10 -10v-59c0 -56 -5 -115 -16 -149
c-33 -106 -123 -167 -240 -167c-120 0 -208 56 -243 164z" />
      <glyph d="M75 10v660c0 6 4 10 10 10h98c6 0 10 -4 10 -10v-268c0 -4 2 -6 6 -6h259c4 0 6 2 6 6v268c0 6 4 10 10 10h98c6 0 10 -4 10 -10v-660c0 -6 -4 -10 -10 -10h-98c-6 0 -10 4 -10 10v274c0 4 -2 6 -6 6h-259c-4 0 -6 -2 -6 -6v-274c0 -6 -4 -10 -10 -10h-98
c-6 0 -10 4 -10 10zM469 753h-63c-9 0 -13 2 -21 10l-57 59h-2l-57 -59c-8 -8 -12 -10 -21 -10h-63c-6 0 -8 5 -4 10l98 125c5 7 10 10 18 10h60c8 0 13 -3 18 -10l98 -125c4 -5 2 -10 -4 -10z" />
      <glyph d="M572 0h-98c-6 0 -10 4 -10 10v274c0 4 -2 6 -6 6h-259c-4 0 -6 -2 -6 -6v-274c0 -6 -4 -10 -10 -10h-98c-6 0 -10 4 -10 10v478c0 4 -2 6 -6 6h-35c-6 0 -10 4 -10 10v64c0 6 4 10 10 10h35c4 0 6 2 6 6v86c0 6 4 10 10 10h98c6 0 10 -4 10 -10v-86c0 -4 2 -6 6 -6h259
c4 0 6 2 6 6v86c0 6 4 10 10 10h98c6 0 10 -4 10 -10v-86c0 -4 2 -6 6 -6h35c6 0 10 -4 10 -10v-64c0 -6 -4 -10 -10 -10h-35c-4 0 -6 -2 -6 -6v-478c0 -6 -4 -10 -10 -10zM458 396c4 0 6 2 6 6v86c0 4 -2 6 -6 6h-259c-4 0 -6 -2 -6 -6v-86c0 -4 2 -6 6 -6h259z" />
      <glyph d="M75 10v660c0 6 4 10 10 10h98c6 0 10 -4 10 -10v-660c0 -6 -4 -10 -10 -10h-98c-6 0 -10 4 -10 10zM169 761h-72c-7 0 -11 1 -18 8l-116 109c-5 5 -2 10 4 10h98c9 0 14 -4 19 -10l89 -107c4 -5 2 -10 -4 -10z" />
      <glyph d="M75 10v660c0 6 4 10 10 10h98c6 0 10 -4 10 -10v-660c0 -6 -4 -10 -10 -10h-98c-6 0 -10 4 -10 10zM173 761h-71c-6 0 -8 5 -4 10l88 107c5 6 10 10 19 10h98c6 0 10 -5 5 -10l-117 -109c-7 -7 -11 -8 -18 -8z" />
      <glyph d="M75 10v660c0 6 4 10 10 10h98c6 0 10 -4 10 -10v-660c0 -6 -4 -10 -10 -10h-98c-6 0 -10 4 -10 10zM135 754c-86 0 -140 51 -145 122c0 6 3 10 9 10h49c6 0 10 -3 12 -10c10 -31 34 -46 75 -46s65 15 75 46c2 7 6 10 12 10h49c6 0 9 -4 9 -10c-5 -71 -59 -122 -145 -122z
" />
      <glyph d="M75 10v660c0 6 4 10 10 10h98c6 0 10 -4 10 -10v-660c0 -6 -4 -10 -10 -10h-98c-6 0 -10 4 -10 10zM277 753h-63c-9 0 -13 2 -21 10l-57 59h-2l-57 -59c-8 -8 -12 -10 -21 -10h-63c-6 0 -8 5 -4 10l98 125c5 7 10 10 18 10h60c8 0 13 -3 18 -10l98 -125
c4 -5 2 -10 -4 -10z" />
      <glyph d="M75 10v660c0 6 4 10 10 10h98c6 0 10 -4 10 -10v-660c0 -6 -4 -10 -10 -10h-98c-6 0 -10 4 -10 10zM194 757c-26 0 -44 8 -67 20c-20 11 -36 18 -56 18c-29 0 -48 -15 -67 -31c-5 -4 -9 -2 -9 2v61c0 8 2 12 8 19c19 20 44 34 72 34c26 0 44 -8 67 -20
c20 -11 36 -18 57 -18c28 0 47 15 66 31c5 4 9 2 9 -2v-61c0 -8 -2 -12 -8 -19c-19 -20 -44 -34 -72 -34z" />
      <glyph d="M75 10v660c0 6 4 10 10 10h98c6 0 10 -4 10 -10v-660c0 -6 -4 -10 -10 -10h-98c-6 0 -10 4 -10 10zM271 769h-73c-6 0 -10 4 -10 10v87c0 6 4 10 10 10h73c6 0 10 -4 10 -10v-87c0 -6 -4 -10 -10 -10zM71 769h-73c-6 0 -10 4 -10 10v87c0 6 4 10 10 10h73
c6 0 10 -4 10 -10v-87c0 -6 -4 -10 -10 -10z" />
      <glyph d="M75 10v660c0 6 4 10 10 10h98c6 0 10 -4 10 -10v-660c0 -6 -4 -10 -10 -10h-98c-6 0 -10 4 -10 10zM266 782h-263c-6 0 -10 4 -10 10v61c0 6 4 10 10 10h263c6 0 10 -4 10 -10v-61c0 -6 -4 -10 -10 -10z" />
      <glyph d="M75 10v660c0 6 4 10 10 10h98c6 0 10 -4 10 -10v-660c0 -6 -4 -10 -10 -10h-98c-6 0 -10 4 -10 10zM181 769h-93c-6 0 -10 4 -10 10v87c0 6 4 10 10 10h93c6 0 10 -4 10 -10v-87c0 -6 -4 -10 -10 -10z" />
      <glyph d="M124 -190c-56 0 -96 30 -96 88c0 40 23 70 57 102c-6 0 -10 4 -10 10v660c0 6 4 10 10 10h98c6 0 10 -4 10 -10v-660c0 -4 -1 -7 -5 -10c-54 -42 -69 -61 -69 -83c0 -16 9 -26 24 -26c8 0 16 3 25 8c6 3 10 2 13 -4l24 -50c3 -5 2 -10 -3 -13c-21 -14 -52 -22 -78 -22z
" />
      <glyph d="M24 71c-3 5 -3 10 2 14l73 55c5 3 10 3 15 -3c17 -20 51 -42 91 -42c72 0 113 45 113 134v441c0 6 4 10 10 10h98c6 0 10 -4 10 -10v-441c0 -154 -91 -240 -235 -240c-77 0 -147 37 -177 82zM517 753h-63c-9 0 -13 2 -21 10l-57 59h-2l-57 -59c-8 -8 -12 -10 -21 -10h-63
c-6 0 -8 5 -4 10l98 125c5 7 10 10 18 10h60c8 0 13 -3 18 -10l98 -125c4 -5 2 -10 -4 -10z" />
      <glyph d="M277 -228c-6 0 -10 5 -10 11v153c0 6 4 10 10 10h83c6 0 10 -4 10 -10v-69c0 -8 -1 -13 -7 -19l-71 -69c-5 -5 -10 -7 -15 -7zM75 10v660c0 6 4 10 10 10h98c6 0 10 -4 10 -10v-320l257 322c5 6 9 8 16 8h114c6 0 9 -7 4 -13l-211 -254l235 -401c4 -7 1 -12 -7 -12h-111
c-8 0 -11 2 -15 8l-178 314l-104 -126v-186c0 -6 -4 -10 -10 -10h-98c-6 0 -10 4 -10 10z" />
      <glyph d="M178 761h-71c-6 0 -8 5 -4 10l88 107c5 6 10 10 19 10h98c6 0 10 -5 5 -10l-117 -109c-7 -7 -11 -8 -18 -8zM75 10v660c0 6 4 10 10 10h98c6 0 10 -4 10 -10v-558c0 -4 2 -6 6 -6h312c6 0 10 -4 10 -10v-86c0 -6 -4 -10 -10 -10h-426c-6 0 -10 4 -10 10z" />
      <glyph d="M259 502c-6 0 -10 5 -10 11v157c0 6 4 10 10 10h83c6 0 10 -4 10 -10v-73c0 -8 -1 -13 -7 -19l-71 -69c-5 -5 -10 -7 -15 -7zM75 10v660c0 6 4 10 10 10h98c6 0 10 -4 10 -10v-558c0 -4 2 -6 6 -6h312c6 0 10 -4 10 -10v-86c0 -6 -4 -10 -10 -10h-426c-6 0 -10 4 -10 10z
" />
      <glyph d="M251 -228c-6 0 -10 5 -10 11v153c0 6 4 10 10 10h83c6 0 10 -4 10 -10v-69c0 -8 -1 -13 -7 -19l-71 -69c-5 -5 -10 -7 -15 -7zM75 10v660c0 6 4 10 10 10h98c6 0 10 -4 10 -10v-558c0 -4 2 -6 6 -6h312c6 0 10 -4 10 -10v-86c0 -6 -4 -10 -10 -10h-426c-6 0 -10 4 -10 10
z" />
      <glyph d="M511 0h-426c-6 0 -10 4 -10 10v249l-51 -26c-6 -3 -10 0 -10 6v81c0 6 2 10 10 14l51 26v310c0 6 4 10 10 10h98c6 0 10 -4 10 -10v-252l127 66c6 3 10 0 10 -6v-81c0 -6 -2 -10 -10 -14l-127 -66v-205c0 -4 2 -6 6 -6h312c6 0 10 -4 10 -10v-86c0 -6 -4 -10 -10 -10z
" />
      <glyph d="M75 10v660c0 6 4 10 10 10h98c6 0 10 -4 10 -10v-558c0 -4 2 -6 6 -6h312c6 0 10 -4 10 -10v-86c0 -6 -4 -10 -10 -10h-426c-6 0 -10 4 -10 10zM456 265h-100c-6 0 -10 4 -10 10v102c0 6 4 10 10 10h100c6 0 10 -4 10 -10v-102c0 -6 -4 -10 -10 -10z" />
      <glyph d="M338 761h-71c-6 0 -8 5 -4 10l88 107c5 6 10 10 19 10h98c6 0 10 -5 5 -10l-117 -109c-7 -7 -11 -8 -18 -8zM75 10v660c0 6 4 10 10 10h92c8 0 13 -3 17 -10l277 -469h4v469c0 6 4 10 10 10h87c6 0 10 -4 10 -10v-660c0 -6 -4 -10 -10 -10h-91c-8 0 -13 3 -17 10
l-278 468h-4v-468c0 -6 -4 -10 -10 -10h-87c-6 0 -10 4 -10 10z" />
      <glyph d="M355 751h-60c-8 0 -13 3 -18 10l-98 125c-4 5 -2 10 4 10h63c9 0 13 -2 21 -10l57 -59h2l57 59c8 8 12 10 21 10h63c6 0 8 -5 4 -10l-98 -125c-5 -7 -10 -10 -18 -10zM75 10v660c0 6 4 10 10 10h92c8 0 13 -3 17 -10l277 -469h4v469c0 6 4 10 10 10h87c6 0 10 -4 10 -10
v-660c0 -6 -4 -10 -10 -10h-91c-8 0 -13 3 -17 10l-278 468h-4v-468c0 -6 -4 -10 -10 -10h-87c-6 0 -10 4 -10 10z" />
      <glyph d="M387 757c-26 0 -44 8 -67 20c-20 11 -36 18 -56 18c-29 0 -48 -15 -67 -31c-5 -4 -9 -2 -9 2v61c0 8 2 12 8 19c19 20 44 34 72 34c26 0 44 -8 67 -20c20 -11 36 -18 57 -18c28 0 47 15 66 31c5 4 9 2 9 -2v-61c0 -8 -2 -12 -8 -19c-19 -20 -44 -34 -72 -34zM75 10v660
c0 6 4 10 10 10h92c8 0 13 -3 17 -10l277 -469h4v469c0 6 4 10 10 10h87c6 0 10 -4 10 -10v-660c0 -6 -4 -10 -10 -10h-91c-8 0 -13 3 -17 10l-278 468h-4v-468c0 -6 -4 -10 -10 -10h-87c-6 0 -10 4 -10 10z" />
      <glyph d="M287 -228c-6 0 -10 5 -10 11v153c0 6 4 10 10 10h83c6 0 10 -4 10 -10v-69c0 -8 -1 -13 -7 -19l-71 -69c-5 -5 -10 -7 -15 -7zM75 10v660c0 6 4 10 10 10h92c8 0 13 -3 17 -10l277 -469h4v469c0 6 4 10 10 10h87c6 0 10 -4 10 -10v-660c0 -6 -4 -10 -10 -10h-91
c-8 0 -13 3 -17 10l-278 468h-4v-468c0 -6 -4 -10 -10 -10h-87c-6 0 -10 4 -10 10z" />
      <glyph d="M366 761h-72c-7 0 -11 1 -18 8l-116 109c-5 5 -2 10 4 10h98c9 0 14 -4 19 -10l89 -107c4 -5 2 -10 -4 -10zM313 -11c-117 0 -205 56 -240 164c-14 42 -18 80 -18 187s4 145 18 187c35 108 123 164 240 164c118 0 206 -56 241 -164c14 -42 18 -80 18 -187
s-4 -145 -18 -187c-35 -108 -123 -164 -241 -164zM313 95c68 0 108 34 127 89c8 25 12 60 12 156c0 97 -4 131 -12 156c-19 55 -59 89 -127 89c-67 0 -107 -34 -126 -89c-8 -25 -12 -59 -12 -156c0 -96 4 -131 12 -156c19 -55 59 -89 126 -89z" />
      <glyph d="M332 761h-71c-6 0 -8 5 -4 10l88 107c5 6 10 10 19 10h98c6 0 10 -5 5 -10l-117 -109c-7 -7 -11 -8 -18 -8zM313 -11c-117 0 -205 56 -240 164c-14 42 -18 80 -18 187s4 145 18 187c35 108 123 164 240 164c118 0 206 -56 241 -164c14 -42 18 -80 18 -187
s-4 -145 -18 -187c-35 -108 -123 -164 -241 -164zM313 95c68 0 108 34 127 89c8 25 12 60 12 156c0 97 -4 131 -12 156c-19 55 -59 89 -127 89c-67 0 -107 -34 -126 -89c-8 -25 -12 -59 -12 -156c0 -96 4 -131 12 -156c19 -55 59 -89 126 -89z" />
      <glyph d="M313 -11c-117 0 -205 56 -240 164c-14 42 -18 80 -18 187s4 145 18 187c35 108 123 164 240 164c118 0 206 -56 241 -164c14 -42 18 -80 18 -187s-4 -145 -18 -187c-35 -108 -123 -164 -241 -164zM313 95c68 0 108 34 127 89c8 25 12 60 12 156c0 97 -4 131 -12 156
c-19 55 -59 89 -127 89c-67 0 -107 -34 -126 -89c-8 -25 -12 -59 -12 -156c0 -96 4 -131 12 -156c19 -55 59 -89 126 -89zM455 753h-63c-9 0 -13 2 -21 10l-57 59h-2l-57 -59c-8 -8 -12 -10 -21 -10h-63c-6 0 -8 5 -4 10l98 125c5 7 10 10 18 10h60c8 0 13 -3 18 -10
l98 -125c4 -5 2 -10 -4 -10z" />
      <glyph d="M372 757c-26 0 -44 8 -67 20c-20 11 -36 18 -56 18c-29 0 -48 -15 -67 -31c-5 -4 -9 -2 -9 2v61c0 8 2 12 8 19c19 20 44 34 72 34c26 0 44 -8 67 -20c20 -11 36 -18 57 -18c28 0 47 15 66 31c5 4 9 2 9 -2v-61c0 -8 -2 -12 -8 -19c-19 -20 -44 -34 -72 -34zM313 -11
c-117 0 -205 56 -240 164c-14 42 -18 80 -18 187s4 145 18 187c35 108 123 164 240 164c118 0 206 -56 241 -164c14 -42 18 -80 18 -187s-4 -145 -18 -187c-35 -108 -123 -164 -241 -164zM313 95c68 0 108 34 127 89c8 25 12 60 12 156c0 97 -4 131 -12 156
c-19 55 -59 89 -127 89c-67 0 -107 -34 -126 -89c-8 -25 -12 -59 -12 -156c0 -96 4 -131 12 -156c19 -55 59 -89 126 -89z" />
      <glyph d="M449 769h-73c-6 0 -10 4 -10 10v87c0 6 4 10 10 10h73c6 0 10 -4 10 -10v-87c0 -6 -4 -10 -10 -10zM249 769h-73c-6 0 -10 4 -10 10v87c0 6 4 10 10 10h73c6 0 10 -4 10 -10v-87c0 -6 -4 -10 -10 -10zM313 -11c-117 0 -205 56 -240 164c-14 42 -18 80 -18 187
s4 145 18 187c35 108 123 164 240 164c118 0 206 -56 241 -164c14 -42 18 -80 18 -187s-4 -145 -18 -187c-35 -108 -123 -164 -241 -164zM313 95c68 0 108 34 127 89c8 25 12 60 12 156c0 97 -4 131 -12 156c-19 55 -59 89 -127 89c-67 0 -107 -34 -126 -89
c-8 -25 -12 -59 -12 -156c0 -96 4 -131 12 -156c19 -55 59 -89 126 -89z" />
      <glyph d="M444 782h-263c-6 0 -10 4 -10 10v61c0 6 4 10 10 10h263c6 0 10 -4 10 -10v-61c0 -6 -4 -10 -10 -10zM313 -11c-117 0 -205 56 -240 164c-14 42 -18 80 -18 187s4 145 18 187c35 108 123 164 240 164c118 0 206 -56 241 -164c14 -42 18 -80 18 -187s-4 -145 -18 -187
c-35 -108 -123 -164 -241 -164zM313 95c68 0 108 34 127 89c8 25 12 60 12 156c0 97 -4 131 -12 156c-19 55 -59 89 -127 89c-67 0 -107 -34 -126 -89c-8 -25 -12 -59 -12 -156c0 -96 4 -131 12 -156c19 -55 59 -89 126 -89z" />
      <glyph d="M313 754c-86 0 -140 51 -145 122c0 6 3 10 9 10h49c6 0 10 -3 12 -10c10 -31 34 -46 75 -46s65 15 75 46c2 7 6 10 12 10h49c6 0 9 -4 9 -10c-5 -71 -59 -122 -145 -122zM313 -11c-117 0 -205 56 -240 164c-14 42 -18 80 -18 187s4 145 18 187c35 108 123 164 240 164
c118 0 206 -56 241 -164c14 -42 18 -80 18 -187s-4 -145 -18 -187c-35 -108 -123 -164 -241 -164zM313 95c68 0 108 34 127 89c8 25 12 60 12 156c0 97 -4 131 -12 156c-19 55 -59 89 -127 89c-67 0 -107 -34 -126 -89c-8 -25 -12 -59 -12 -156c0 -96 4 -131 12 -156
c19 -55 59 -89 126 -89z" />
      <glyph d="M313 -11c-117 0 -205 56 -240 164c-14 42 -18 80 -18 187s4 145 18 187c35 108 123 164 240 164c118 0 206 -56 241 -164c14 -42 18 -80 18 -187s-4 -145 -18 -187c-35 -108 -123 -164 -241 -164zM313 95c68 0 108 34 127 89c8 25 12 60 12 156c0 97 -4 131 -12 156
c-19 55 -59 89 -127 89c-67 0 -107 -34 -126 -89c-8 -25 -12 -59 -12 -156c0 -96 4 -131 12 -156c19 -55 59 -89 126 -89zM408 763h-63c-6 0 -8 5 -5 10l65 107c4 7 9 10 17 10h78c6 0 8 -5 4 -10l-77 -107c-5 -7 -10 -10 -19 -10zM250 763h-63c-6 0 -8 5 -5 10l65 107
c4 7 9 10 17 10h78c6 0 8 -5 4 -10l-77 -107c-5 -7 -10 -10 -19 -10z" />
      <glyph d="M124 -30h-63c-6 0 -8 5 -5 10l57 96c-17 22 -31 47 -40 77c-14 42 -18 80 -18 187s4 145 18 187c35 108 123 164 240 164c56 0 106 -13 146 -38l29 48c3 5 8 9 15 9h63c6 0 8 -5 5 -10l-58 -96c17 -22 31 -48 41 -77c14 -42 18 -80 18 -187s-4 -145 -18 -187
c-35 -108 -123 -164 -241 -164c-56 0 -106 13 -146 38l-28 -48c-3 -5 -8 -9 -15 -9zM174 340c0 -90 3 -126 10 -151l216 368c-22 18 -50 28 -87 28c-67 0 -108 -34 -127 -89c-8 -25 -12 -59 -12 -156zM313 95c68 0 109 34 128 89c8 25 12 60 12 156c0 88 -4 124 -10 149
l-216 -367c22 -18 50 -27 86 -27z" />
      <glyph d="M124 -30h-63c-6 0 -8 5 -5 10l57 96c-17 22 -31 47 -40 77c-14 42 -18 80 -18 187s4 145 18 187c35 108 123 164 240 164c56 0 106 -13 146 -38l29 48c3 5 8 9 15 9h63c6 0 8 -5 5 -10l-58 -96c17 -22 31 -48 41 -77c14 -42 18 -80 18 -187s-4 -145 -18 -187
c-35 -108 -123 -164 -241 -164c-56 0 -106 13 -146 38l-28 -48c-3 -5 -8 -9 -15 -9zM174 340c0 -90 3 -126 10 -151l216 368c-22 18 -50 28 -87 28c-67 0 -108 -34 -127 -89c-8 -25 -12 -59 -12 -156zM313 95c68 0 109 34 128 89c8 25 12 60 12 156c0 88 -4 124 -10 149
l-216 -367c22 -18 50 -27 86 -27zM332 761h-71c-6 0 -8 5 -4 10l88 107c5 6 10 10 19 10h98c6 0 10 -5 5 -10l-117 -109c-7 -7 -11 -8 -18 -8z" />
      <glyph d="M888 0h-426c-6 0 -10 4 -10 10v27h-1c-32 -31 -78 -48 -138 -48c-117 0 -205 56 -240 164c-14 42 -18 80 -18 187s4 145 18 187c35 108 123 164 240 164c60 0 106 -17 138 -48h1v27c0 6 4 10 10 10h426c6 0 10 -4 10 -10v-86c0 -6 -4 -10 -10 -10h-312c-4 0 -6 -2 -6 -6
v-166c0 -4 2 -6 6 -6h263c6 0 10 -4 10 -10v-86c0 -6 -4 -10 -10 -10h-263c-4 0 -6 -2 -6 -6v-172c0 -4 2 -6 6 -6h312c6 0 10 -4 10 -10v-86c0 -6 -4 -10 -10 -10zM313 95c68 0 108 34 127 89c8 25 12 60 12 156c0 97 -4 131 -12 156c-19 55 -59 89 -127 89
c-67 0 -107 -34 -126 -89c-8 -25 -12 -59 -12 -156c0 -96 4 -131 12 -156c19 -55 59 -89 126 -89z" />
      <glyph d="M572 0h-111c-8 0 -12 3 -15 10l-130 265h-117c-4 0 -6 -2 -6 -6v-259c0 -6 -4 -10 -10 -10h-98c-6 0 -10 4 -10 10v660c0 6 4 10 10 10h263c125 0 217 -83 217 -203c0 -89 -51 -158 -129 -187l143 -277c4 -7 0 -13 -7 -13zM344 381c62 0 104 38 104 96
c0 59 -42 97 -104 97h-145c-4 0 -6 -2 -6 -6v-181c0 -4 2 -6 6 -6h145zM303 761h-71c-6 0 -8 5 -4 10l88 107c5 6 10 10 19 10h98c6 0 10 -5 5 -10l-117 -109c-7 -7 -11 -8 -18 -8z" />
      <glyph d="M319 751h-60c-8 0 -13 3 -18 10l-98 125c-4 5 -2 10 4 10h63c9 0 13 -2 21 -10l57 -59h2l57 59c8 8 12 10 21 10h63c6 0 8 -5 4 -10l-98 -125c-5 -7 -10 -10 -18 -10zM572 0h-111c-8 0 -12 3 -15 10l-130 265h-117c-4 0 -6 -2 -6 -6v-259c0 -6 -4 -10 -10 -10h-98
c-6 0 -10 4 -10 10v660c0 6 4 10 10 10h263c125 0 217 -83 217 -203c0 -89 -51 -158 -129 -187l143 -277c4 -7 0 -13 -7 -13zM344 381c62 0 104 38 104 96c0 59 -42 97 -104 97h-145c-4 0 -6 -2 -6 -6v-181c0 -4 2 -6 6 -6h145z" />
      <glyph d="M269 -228c-6 0 -10 5 -10 11v153c0 6 4 10 10 10h83c6 0 10 -4 10 -10v-69c0 -8 -1 -13 -7 -19l-71 -69c-5 -5 -10 -7 -15 -7zM572 0h-111c-8 0 -12 3 -15 10l-130 265h-117c-4 0 -6 -2 -6 -6v-259c0 -6 -4 -10 -10 -10h-98c-6 0 -10 4 -10 10v660c0 6 4 10 10 10h263
c125 0 217 -83 217 -203c0 -89 -51 -158 -129 -187l143 -277c4 -7 0 -13 -7 -13zM344 381c62 0 104 38 104 96c0 59 -42 97 -104 97h-145c-4 0 -6 -2 -6 -6v-181c0 -4 2 -6 6 -6h145z" />
      <glyph d="M289 -11c-100 0 -197 40 -250 90c-4 4 -6 10 -2 15l62 72c4 5 10 5 14 1c44 -35 109 -72 185 -72c81 0 128 41 128 98c0 49 -30 81 -124 94l-36 5c-131 18 -205 81 -205 194c0 123 90 205 230 205c85 0 166 -27 220 -68c5 -4 6 -8 2 -14l-48 -74c-4 -5 -9 -6 -14 -3
c-55 36 -106 53 -163 53c-69 0 -107 -38 -107 -91c0 -47 33 -79 125 -92l36 -5c131 -18 203 -80 203 -197c0 -121 -87 -211 -256 -211zM316 761h-71c-6 0 -8 5 -4 10l88 107c5 6 10 10 19 10h98c6 0 10 -5 5 -10l-117 -109c-7 -7 -11 -8 -18 -8z" />
      <glyph d="M289 -11c-100 0 -197 40 -250 90c-4 4 -6 10 -2 15l62 72c4 5 10 5 14 1c44 -35 109 -72 185 -72c81 0 128 41 128 98c0 49 -30 81 -124 94l-36 5c-131 18 -205 81 -205 194c0 123 90 205 230 205c85 0 166 -27 220 -68c5 -4 6 -8 2 -14l-48 -74c-4 -5 -9 -6 -14 -3
c-55 36 -106 53 -163 53c-69 0 -107 -38 -107 -91c0 -47 33 -79 125 -92l36 -5c131 -18 203 -80 203 -197c0 -121 -87 -211 -256 -211zM438 753h-63c-9 0 -13 2 -21 10l-57 59h-2l-57 -59c-8 -8 -12 -10 -21 -10h-63c-6 0 -8 5 -4 10l98 125c5 7 10 10 18 10h60
c8 0 13 -3 18 -10l98 -125c4 -5 2 -10 -4 -10z" />
      <glyph d="M289 -11c-100 0 -197 40 -250 90c-4 4 -6 10 -2 15l62 72c4 5 10 5 14 1c44 -35 109 -72 185 -72c81 0 128 41 128 98c0 49 -30 81 -124 94l-36 5c-131 18 -205 81 -205 194c0 123 90 205 230 205c85 0 166 -27 220 -68c5 -4 6 -8 2 -14l-48 -74c-4 -5 -9 -6 -14 -3
c-55 36 -106 53 -163 53c-69 0 -107 -38 -107 -91c0 -47 33 -79 125 -92l36 -5c131 -18 203 -80 203 -197c0 -121 -87 -211 -256 -211zM326 751h-60c-8 0 -13 3 -18 10l-98 125c-4 5 -2 10 4 10h63c9 0 13 -2 21 -10l57 -59h2l57 59c8 8 12 10 21 10h63c6 0 8 -5 4 -10
l-98 -125c-5 -7 -10 -10 -18 -10z" />
      <glyph d="M284 -155h-78c-6 0 -9 4 -7 10l55 135c-86 8 -168 44 -215 89c-4 4 -6 10 -2 15l62 72c4 5 10 5 14 1c44 -35 109 -72 185 -72c81 0 128 41 128 98c0 49 -30 81 -124 94l-36 5c-131 18 -205 81 -205 194c0 123 90 205 230 205c85 0 166 -27 220 -68c5 -4 6 -8 2 -14
l-48 -74c-4 -5 -9 -6 -14 -3c-55 36 -106 53 -163 53c-69 0 -107 -38 -107 -91c0 -47 33 -79 125 -92l36 -5c131 -18 203 -80 203 -197c0 -107 -67 -190 -202 -208l-43 -137c-2 -7 -8 -10 -16 -10z" />
      <glyph d="M251 -228c-6 0 -10 5 -10 11v153c0 6 4 10 10 10h83c6 0 10 -4 10 -10v-69c0 -8 -1 -13 -7 -19l-71 -69c-5 -5 -10 -7 -15 -7zM289 -11c-100 0 -197 40 -250 90c-4 4 -6 10 -2 15l62 72c4 5 10 5 14 1c44 -35 109 -72 185 -72c81 0 128 41 128 98c0 49 -30 81 -124 94
l-36 5c-131 18 -205 81 -205 194c0 123 90 205 230 205c85 0 166 -27 220 -68c5 -4 6 -8 2 -14l-48 -74c-4 -5 -9 -6 -14 -3c-55 36 -106 53 -163 53c-69 0 -107 -38 -107 -91c0 -47 33 -79 125 -92l36 -5c131 -18 203 -80 203 -197c0 -121 -87 -211 -256 -211z" />
      <glyph d="M304 751h-60c-8 0 -13 3 -18 10l-98 125c-4 5 -2 10 4 10h63c9 0 13 -2 21 -10l57 -59h2l57 59c8 8 12 10 21 10h63c6 0 8 -5 4 -10l-98 -125c-5 -7 -10 -10 -18 -10zM324 0h-98c-6 0 -10 4 -10 10v558c0 4 -2 6 -6 6h-178c-6 0 -10 4 -10 10v86c0 6 4 10 10 10h486
c6 0 10 -4 10 -10v-86c0 -6 -4 -10 -10 -10h-178c-4 0 -6 -2 -6 -6v-558c0 -6 -4 -10 -10 -10z" />
      <glyph d="M233 -228c-6 0 -10 5 -10 11v153c0 6 4 10 10 10h83c6 0 10 -4 10 -10v-69c0 -8 -1 -13 -7 -19l-71 -69c-5 -5 -10 -7 -15 -7zM324 0h-98c-6 0 -10 4 -10 10v558c0 4 -2 6 -6 6h-178c-6 0 -10 4 -10 10v86c0 6 4 10 10 10h486c6 0 10 -4 10 -10v-86c0 -6 -4 -10 -10 -10
h-178c-4 0 -6 -2 -6 -6v-558c0 -6 -4 -10 -10 -10z" />
      <glyph d="M233 -228c-6 0 -10 5 -10 11v153c0 6 4 10 10 10h83c6 0 10 -4 10 -10v-69c0 -8 -1 -13 -7 -19l-71 -69c-5 -5 -10 -7 -15 -7zM324 0h-98c-6 0 -10 4 -10 10v558c0 4 -2 6 -6 6h-178c-6 0 -10 4 -10 10v86c0 6 4 10 10 10h486c6 0 10 -4 10 -10v-86c0 -6 -4 -10 -10 -10
h-178c-4 0 -6 -2 -6 -6v-558c0 -6 -4 -10 -10 -10z" />
      <glyph d="M324 0h-98c-6 0 -10 4 -10 10v320c0 4 -2 6 -6 6h-100c-6 0 -10 4 -10 10v78c0 6 4 10 10 10h100c4 0 6 2 6 6v128c0 4 -2 6 -6 6h-178c-6 0 -10 4 -10 10v86c0 6 4 10 10 10h486c6 0 10 -4 10 -10v-86c0 -6 -4 -10 -10 -10h-178c-4 0 -6 -2 -6 -6v-128c0 -4 2 -6 6 -6
h100c6 0 10 -4 10 -10v-78c0 -6 -4 -10 -10 -10h-100c-4 0 -6 -2 -6 -6v-320c0 -6 -4 -10 -10 -10z" />
      <glyph d="M183 0h-98c-6 0 -10 4 -10 10v660c0 6 4 10 10 10h98c6 0 10 -4 10 -10v-98c0 -4 2 -6 6 -6h141c132 0 224 -84 224 -211s-92 -212 -224 -212h-141c-4 0 -6 -2 -6 -6v-127c0 -6 -4 -10 -10 -10zM333 250c70 0 113 42 113 105s-43 105 -113 105h-134c-4 0 -6 -2 -6 -6
v-198c0 -4 2 -6 6 -6h134z" />
      <glyph d="M372 761h-72c-7 0 -11 1 -18 8l-116 109c-5 5 -2 10 4 10h98c9 0 14 -4 19 -10l89 -107c4 -5 2 -10 -4 -10zM321 95c78 0 133 52 133 146v429c0 6 4 10 10 10h98c6 0 10 -4 10 -10v-431c0 -158 -107 -250 -251 -250c-143 0 -250 92 -250 250v431c0 6 4 10 10 10h98
c6 0 10 -4 10 -10v-429c0 -94 55 -146 132 -146z" />
      <glyph d="M342 761h-71c-6 0 -8 5 -4 10l88 107c5 6 10 10 19 10h98c6 0 10 -5 5 -10l-117 -109c-7 -7 -11 -8 -18 -8zM321 95c78 0 133 52 133 146v429c0 6 4 10 10 10h98c6 0 10 -4 10 -10v-431c0 -158 -107 -250 -251 -250c-143 0 -250 92 -250 250v431c0 6 4 10 10 10h98
c6 0 10 -4 10 -10v-429c0 -94 55 -146 132 -146z" />
      <glyph d="M321 95c78 0 133 52 133 146v429c0 6 4 10 10 10h98c6 0 10 -4 10 -10v-431c0 -158 -107 -250 -251 -250c-143 0 -250 92 -250 250v431c0 6 4 10 10 10h98c6 0 10 -4 10 -10v-429c0 -94 55 -146 132 -146zM463 753h-63c-9 0 -13 2 -21 10l-57 59h-2l-57 -59
c-8 -8 -12 -10 -21 -10h-63c-6 0 -8 5 -4 10l98 125c5 7 10 10 18 10h60c8 0 13 -3 18 -10l98 -125c4 -5 2 -10 -4 -10z" />
      <glyph d="M381 757c-26 0 -44 8 -67 20c-20 11 -36 18 -56 18c-29 0 -48 -15 -67 -31c-5 -4 -9 -2 -9 2v61c0 8 2 12 8 19c19 20 44 34 72 34c26 0 44 -8 67 -20c20 -11 36 -18 57 -18c28 0 47 15 66 31c5 4 9 2 9 -2v-61c0 -8 -2 -12 -8 -19c-19 -20 -44 -34 -72 -34zM321 95
c78 0 133 52 133 146v429c0 6 4 10 10 10h98c6 0 10 -4 10 -10v-431c0 -158 -107 -250 -251 -250c-143 0 -250 92 -250 250v431c0 6 4 10 10 10h98c6 0 10 -4 10 -10v-429c0 -94 55 -146 132 -146z" />
      <glyph d="M458 769h-73c-6 0 -10 4 -10 10v87c0 6 4 10 10 10h73c6 0 10 -4 10 -10v-87c0 -6 -4 -10 -10 -10zM258 769h-73c-6 0 -10 4 -10 10v87c0 6 4 10 10 10h73c6 0 10 -4 10 -10v-87c0 -6 -4 -10 -10 -10zM321 95c78 0 133 52 133 146v429c0 6 4 10 10 10h98
c6 0 10 -4 10 -10v-431c0 -158 -107 -250 -251 -250c-143 0 -250 92 -250 250v431c0 6 4 10 10 10h98c6 0 10 -4 10 -10v-429c0 -94 55 -146 132 -146z" />
      <glyph d="M453 782h-263c-6 0 -10 4 -10 10v61c0 6 4 10 10 10h263c6 0 10 -4 10 -10v-61c0 -6 -4 -10 -10 -10zM321 95c78 0 133 52 133 146v429c0 6 4 10 10 10h98c6 0 10 -4 10 -10v-431c0 -158 -107 -250 -251 -250c-143 0 -250 92 -250 250v431c0 6 4 10 10 10h98
c6 0 10 -4 10 -10v-429c0 -94 55 -146 132 -146z" />
      <glyph d="M321 754c-86 0 -140 51 -145 122c0 6 3 10 9 10h49c6 0 10 -3 12 -10c10 -31 34 -46 75 -46s65 15 75 46c2 7 6 10 12 10h49c6 0 9 -4 9 -10c-5 -71 -59 -122 -145 -122zM321 95c78 0 133 52 133 146v429c0 6 4 10 10 10h98c6 0 10 -4 10 -10v-431
c0 -158 -107 -250 -251 -250c-143 0 -250 92 -250 250v431c0 6 4 10 10 10h98c6 0 10 -4 10 -10v-429c0 -94 55 -146 132 -146z" />
      <glyph d="M321 95c78 0 133 52 133 146v429c0 6 4 10 10 10h98c6 0 10 -4 10 -10v-431c0 -158 -107 -250 -251 -250c-143 0 -250 92 -250 250v431c0 6 4 10 10 10h98c6 0 10 -4 10 -10v-429c0 -94 55 -146 132 -146zM321 721c-57 0 -99 42 -99 99s42 100 99 100s99 -43 99 -100
s-42 -99 -99 -99zM321 769c28 0 49 22 49 51s-21 51 -49 51s-49 -22 -49 -51s21 -51 49 -51z" />
      <glyph d="M321 95c78 0 133 52 133 146v429c0 6 4 10 10 10h98c6 0 10 -4 10 -10v-431c0 -158 -107 -250 -251 -250c-143 0 -250 92 -250 250v431c0 6 4 10 10 10h98c6 0 10 -4 10 -10v-429c0 -94 55 -146 132 -146zM424 763h-63c-6 0 -8 5 -5 10l65 107c4 7 9 10 17 10h78
c6 0 8 -5 4 -10l-77 -107c-5 -7 -10 -10 -19 -10zM266 763h-63c-6 0 -8 5 -5 10l65 107c4 7 9 10 17 10h78c6 0 8 -5 4 -10l-77 -107c-5 -7 -10 -10 -19 -10z" />
      <glyph d="M333 -190c-57 0 -96 30 -96 88c0 34 18 62 44 93c-126 14 -210 106 -210 248v431c0 6 4 10 10 10h98c6 0 10 -4 10 -10v-429c0 -94 55 -146 132 -146c78 0 133 52 133 146v429c0 6 4 10 10 10h98c6 0 10 -4 10 -10v-431c0 -135 -79 -219 -187 -244
c-45 -37 -57 -58 -57 -78c0 -16 9 -26 24 -26c9 0 15 3 25 8c6 3 10 2 13 -4l24 -50c3 -5 1 -10 -4 -13c-20 -14 -51 -22 -77 -22z" />
      <glyph d="M455 761h-71c-6 0 -8 5 -4 10l88 107c5 6 10 10 19 10h98c6 0 10 -5 5 -10l-117 -109c-7 -7 -11 -8 -18 -8zM633 0h-76c-6 0 -10 4 -12 10l-130 465h-2l-131 -465c-2 -6 -6 -10 -12 -10h-75c-6 0 -10 4 -12 10l-167 660c-1 6 1 10 8 10h94c7 0 11 -4 12 -10l108 -458h2
l127 458c2 6 6 10 12 10h70c7 0 10 -4 12 -10l130 -458h2l105 458c1 7 6 10 12 10h93c7 0 9 -4 8 -10l-166 -660c-1 -6 -6 -10 -12 -10z" />
      <glyph d="M633 0h-76c-6 0 -10 4 -12 10l-130 465h-2l-131 -465c-2 -6 -6 -10 -12 -10h-75c-6 0 -10 4 -12 10l-167 660c-1 6 1 10 8 10h94c7 0 11 -4 12 -10l108 -458h2l127 458c2 6 6 10 12 10h70c7 0 10 -4 12 -10l130 -458h2l105 458c1 7 6 10 12 10h93c7 0 9 -4 8 -10
l-166 -660c-1 -6 -6 -10 -12 -10zM555 753h-63c-9 0 -13 2 -21 10l-57 59h-2l-57 -59c-8 -8 -12 -10 -21 -10h-63c-6 0 -8 5 -4 10l98 125c5 7 10 10 18 10h60c8 0 13 -3 18 -10l98 -125c4 -5 2 -10 -4 -10z" />
      <glyph d="M549 769h-73c-6 0 -10 4 -10 10v87c0 6 4 10 10 10h73c6 0 10 -4 10 -10v-87c0 -6 -4 -10 -10 -10zM349 769h-73c-6 0 -10 4 -10 10v87c0 6 4 10 10 10h73c6 0 10 -4 10 -10v-87c0 -6 -4 -10 -10 -10zM633 0h-76c-6 0 -10 4 -12 10l-130 465h-2l-131 -465
c-2 -6 -6 -10 -12 -10h-75c-6 0 -10 4 -12 10l-167 660c-1 6 1 10 8 10h94c7 0 11 -4 12 -10l108 -458h2l127 458c2 6 6 10 12 10h70c7 0 10 -4 12 -10l130 -458h2l105 458c1 7 6 10 12 10h93c7 0 9 -4 8 -10l-166 -660c-1 -6 -6 -10 -12 -10z" />
      <glyph d="M446 761h-72c-7 0 -11 1 -18 8l-116 109c-5 5 -2 10 4 10h98c9 0 14 -4 19 -10l89 -107c4 -5 2 -10 -4 -10zM633 0h-76c-6 0 -10 4 -12 10l-130 465h-2l-131 -465c-2 -6 -6 -10 -12 -10h-75c-6 0 -10 4 -12 10l-167 660c-1 6 1 10 8 10h94c7 0 11 -4 12 -10l108 -458h2
l127 458c2 6 6 10 12 10h70c7 0 10 -4 12 -10l130 -458h2l105 458c1 7 6 10 12 10h93c7 0 9 -4 8 -10l-166 -660c-1 -6 -6 -10 -12 -10z" />
      <glyph d="M317 0h-98c-6 0 -10 4 -10 10v268l-197 392c-2 5 1 10 8 10h101c6 0 11 -3 14 -10l133 -264h3l134 264c3 7 7 10 14 10h97c8 0 10 -5 8 -10l-197 -392v-268c0 -6 -4 -10 -10 -10zM297 761h-71c-6 0 -8 5 -4 10l88 107c5 6 10 10 19 10h98c6 0 10 -5 5 -10l-117 -109
c-7 -7 -11 -8 -18 -8z" />
      <glyph d="M317 0h-98c-6 0 -10 4 -10 10v268l-197 392c-2 5 1 10 8 10h101c6 0 11 -3 14 -10l133 -264h3l134 264c3 7 7 10 14 10h97c8 0 10 -5 8 -10l-197 -392v-268c0 -6 -4 -10 -10 -10zM409 753h-63c-9 0 -13 2 -21 10l-57 59h-2l-57 -59c-8 -8 -12 -10 -21 -10h-63
c-6 0 -8 5 -4 10l98 125c5 7 10 10 18 10h60c8 0 13 -3 18 -10l98 -125c4 -5 2 -10 -4 -10z" />
      <glyph d="M317 0h-98c-6 0 -10 4 -10 10v268l-197 392c-2 5 1 10 8 10h101c6 0 11 -3 14 -10l133 -264h3l134 264c3 7 7 10 14 10h97c8 0 10 -5 8 -10l-197 -392v-268c0 -6 -4 -10 -10 -10zM404 769h-73c-6 0 -10 4 -10 10v87c0 6 4 10 10 10h73c6 0 10 -4 10 -10v-87
c0 -6 -4 -10 -10 -10zM204 769h-73c-6 0 -10 4 -10 10v87c0 6 4 10 10 10h73c6 0 10 -4 10 -10v-87c0 -6 -4 -10 -10 -10z" />
      <glyph d="M317 0h-98c-6 0 -10 4 -10 10v268l-197 392c-2 5 1 10 8 10h101c6 0 11 -3 14 -10l133 -264h3l134 264c3 7 7 10 14 10h97c8 0 10 -5 8 -10l-197 -392v-268c0 -6 -4 -10 -10 -10zM310 761h-72c-7 0 -11 1 -18 8l-116 109c-5 5 -2 10 4 10h98c9 0 14 -4 19 -10l89 -107
c4 -5 2 -10 -4 -10z" />
      <glyph d="M478 0h-423c-6 0 -10 4 -10 10v86c0 4 1 7 3 11l307 465v2h-289c-6 0 -10 4 -10 10v86c0 6 4 10 10 10h412c6 0 10 -4 10 -10v-86c0 -4 -1 -7 -3 -10l-307 -466v-2h300c6 0 10 -4 10 -10v-86c0 -6 -4 -10 -10 -10zM281 761h-71c-6 0 -8 5 -4 10l88 107c5 6 10 10 19 10
h98c6 0 10 -5 5 -10l-117 -109c-7 -7 -11 -8 -18 -8z" />
      <glyph d="M296 751h-60c-8 0 -13 3 -18 10l-98 125c-4 5 -2 10 4 10h63c9 0 13 -2 21 -10l57 -59h2l57 59c8 8 12 10 21 10h63c6 0 8 -5 4 -10l-98 -125c-5 -7 -10 -10 -18 -10zM478 0h-423c-6 0 -10 4 -10 10v86c0 4 1 7 3 11l307 465v2h-289c-6 0 -10 4 -10 10v86c0 6 4 10 10 10
h412c6 0 10 -4 10 -10v-86c0 -4 -1 -7 -3 -10l-307 -466v-2h300c6 0 10 -4 10 -10v-86c0 -6 -4 -10 -10 -10z" />
      <glyph d="M312 769h-93c-6 0 -10 4 -10 10v87c0 6 4 10 10 10h93c6 0 10 -4 10 -10v-87c0 -6 -4 -10 -10 -10zM478 0h-423c-6 0 -10 4 -10 10v86c0 4 1 7 3 11l307 465v2h-289c-6 0 -10 4 -10 10v86c0 6 4 10 10 10h412c6 0 10 -4 10 -10v-86c0 -4 -1 -7 -3 -10l-307 -466v-2h300
c6 0 10 -4 10 -10v-86c0 -6 -4 -10 -10 -10z" />
      <glyph d="M444 0h-84c-6 0 -10 4 -10 10v35h-1c-23 -33 -68 -56 -136 -56c-88 0 -162 46 -162 147c0 105 74 153 193 153h98c4 0 6 2 6 6v23c0 55 -26 80 -107 80c-54 0 -87 -15 -110 -33c-5 -4 -11 -3 -14 2l-37 66c-3 5 -2 10 2 13c39 28 92 47 171 47c147 0 201 -50 201 -168
v-315c0 -6 -4 -10 -10 -10zM241 80c69 0 107 27 107 82v37c0 4 -2 6 -6 6h-80c-72 0 -104 -20 -104 -65c0 -40 29 -60 83 -60zM326 555h-67c-9 0 -14 3 -20 10l-95 125c-4 5 -1 10 5 10h91c8 0 14 -3 18 -10l74 -125c3 -6 0 -10 -6 -10z" />
      <glyph d="M444 0h-84c-6 0 -10 4 -10 10v35h-1c-23 -33 -68 -56 -136 -56c-88 0 -162 46 -162 147c0 105 74 153 193 153h98c4 0 6 2 6 6v23c0 55 -26 80 -107 80c-54 0 -87 -15 -110 -33c-5 -4 -11 -3 -14 2l-37 66c-3 5 -2 10 2 13c39 28 92 47 171 47c147 0 201 -50 201 -168
v-315c0 -6 -4 -10 -10 -10zM241 80c69 0 107 27 107 82v37c0 4 -2 6 -6 6h-80c-72 0 -104 -20 -104 -65c0 -40 29 -60 83 -60zM281 555h-68c-6 0 -9 4 -6 10l75 125c4 7 10 10 18 10h91c6 0 9 -5 5 -10l-95 -125c-6 -7 -11 -10 -20 -10z" />
      <glyph d="M444 0h-84c-6 0 -10 4 -10 10v35h-1c-23 -33 -68 -56 -136 -56c-88 0 -162 46 -162 147c0 105 74 153 193 153h98c4 0 6 2 6 6v23c0 55 -26 80 -107 80c-54 0 -87 -15 -110 -33c-5 -4 -11 -3 -14 2l-37 66c-3 5 -2 10 2 13c39 28 92 47 171 47c147 0 201 -50 201 -168
v-315c0 -6 -4 -10 -10 -10zM241 80c69 0 107 27 107 82v37c0 4 -2 6 -6 6h-80c-72 0 -104 -20 -104 -65c0 -40 29 -60 83 -60zM403 555h-63c-9 0 -13 2 -21 10l-57 59h-2l-57 -59c-8 -8 -12 -10 -21 -10h-63c-6 0 -8 5 -4 10l98 125c5 7 10 10 18 10h60c8 0 13 -3 18 -10
l98 -125c4 -5 2 -10 -4 -10z" />
      <glyph d="M444 0h-84c-6 0 -10 4 -10 10v35h-1c-23 -33 -68 -56 -136 -56c-88 0 -162 46 -162 147c0 105 74 153 193 153h98c4 0 6 2 6 6v23c0 55 -26 80 -107 80c-54 0 -87 -15 -110 -33c-5 -4 -11 -3 -14 2l-37 66c-3 5 -2 10 2 13c39 28 92 47 171 47c147 0 201 -50 201 -168
v-315c0 -6 -4 -10 -10 -10zM241 80c69 0 107 27 107 82v37c0 4 -2 6 -6 6h-80c-72 0 -104 -20 -104 -65c0 -40 29 -60 83 -60zM320 561c-26 0 -44 8 -67 20c-20 11 -36 18 -56 18c-29 0 -48 -15 -67 -31c-5 -4 -9 -2 -9 2v61c0 8 2 12 8 19c19 20 44 34 72 34
c26 0 44 -8 67 -20c20 -11 36 -18 57 -18c28 0 47 15 66 31c5 4 9 2 9 -2v-61c0 -8 -2 -12 -8 -19c-19 -20 -44 -34 -72 -34z" />
      <glyph d="M444 0h-84c-6 0 -10 4 -10 10v35h-1c-23 -33 -68 -56 -136 -56c-88 0 -162 46 -162 147c0 105 74 153 193 153h98c4 0 6 2 6 6v23c0 55 -26 80 -107 80c-54 0 -87 -15 -110 -33c-5 -4 -11 -3 -14 2l-37 66c-3 5 -2 10 2 13c39 28 92 47 171 47c147 0 201 -50 201 -168
v-315c0 -6 -4 -10 -10 -10zM241 80c69 0 107 27 107 82v37c0 4 -2 6 -6 6h-80c-72 0 -104 -20 -104 -65c0 -40 29 -60 83 -60zM397 573h-77c-6 0 -10 4 -10 10v87c0 6 4 10 10 10h77c6 0 10 -4 10 -10v-87c0 -6 -4 -10 -10 -10zM201 573h-77c-6 0 -10 4 -10 10v87
c0 6 4 10 10 10h77c6 0 10 -4 10 -10v-87c0 -6 -4 -10 -10 -10z" />
      <glyph d="M444 0h-84c-6 0 -10 4 -10 10v35h-1c-23 -33 -68 -56 -136 -56c-88 0 -162 46 -162 147c0 105 74 153 193 153h98c4 0 6 2 6 6v23c0 55 -26 80 -107 80c-54 0 -87 -15 -110 -33c-5 -4 -11 -3 -14 2l-37 66c-3 5 -2 10 2 13c39 28 92 47 171 47c147 0 201 -50 201 -168
v-315c0 -6 -4 -10 -10 -10zM241 80c69 0 107 27 107 82v37c0 4 -2 6 -6 6h-80c-72 0 -104 -20 -104 -65c0 -40 29 -60 83 -60zM392 587h-263c-6 0 -10 4 -10 10v61c0 6 4 10 10 10h263c6 0 10 -4 10 -10v-61c0 -6 -4 -10 -10 -10z" />
      <glyph d="M444 0h-84c-6 0 -10 4 -10 10v35h-1c-23 -33 -68 -56 -136 -56c-88 0 -162 46 -162 147c0 105 74 153 193 153h98c4 0 6 2 6 6v23c0 55 -26 80 -107 80c-54 0 -87 -15 -110 -33c-5 -4 -11 -3 -14 2l-37 66c-3 5 -2 10 2 13c39 28 92 47 171 47c147 0 201 -50 201 -168
v-315c0 -6 -4 -10 -10 -10zM241 80c69 0 107 27 107 82v37c0 4 -2 6 -6 6h-80c-72 0 -104 -20 -104 -65c0 -40 29 -60 83 -60zM261 554c-86 0 -140 50 -145 121c0 6 3 10 9 10h49c6 0 10 -3 12 -10c10 -31 34 -45 75 -45s65 14 75 45c2 7 6 10 12 10h49c6 0 9 -4 9 -10
c-5 -71 -59 -121 -145 -121z" />
      <glyph d="M444 0h-84c-6 0 -10 4 -10 10v35h-1c-23 -33 -68 -56 -136 -56c-88 0 -162 46 -162 147c0 105 74 153 193 153h98c4 0 6 2 6 6v23c0 55 -26 80 -107 80c-54 0 -87 -15 -110 -33c-5 -4 -11 -3 -14 2l-37 66c-3 5 -2 10 2 13c39 28 92 47 171 47c147 0 201 -50 201 -168
v-315c0 -6 -4 -10 -10 -10zM241 80c69 0 107 27 107 82v37c0 4 -2 6 -6 6h-80c-72 0 -104 -20 -104 -65c0 -40 29 -60 83 -60zM266 529c-57 0 -99 43 -99 100s42 100 99 100s99 -43 99 -100s-42 -100 -99 -100zM266 578c28 0 49 22 49 51s-21 51 -49 51s-49 -22 -49 -51
s21 -51 49 -51z" />
      <glyph d="M304 766h-72c-6 0 -8 5 -4 10l84 102c5 6 10 10 19 10h98c6 0 10 -5 5 -10l-112 -104c-7 -7 -11 -8 -18 -8zM444 0h-84c-6 0 -10 4 -10 10v35h-1c-23 -33 -68 -56 -136 -56c-88 0 -162 46 -162 147c0 105 74 153 193 153h98c4 0 6 2 6 6v23c0 55 -26 80 -107 80
c-54 0 -87 -15 -110 -33c-5 -4 -11 -3 -14 2l-37 66c-3 5 -2 10 2 13c39 28 92 47 171 47c147 0 201 -50 201 -168v-315c0 -6 -4 -10 -10 -10zM241 80c69 0 107 27 107 82v37c0 4 -2 6 -6 6h-80c-72 0 -104 -20 -104 -65c0 -40 29 -60 83 -60zM266 529c-57 0 -99 43 -99 100
s42 100 99 100s99 -43 99 -100s-42 -100 -99 -100zM266 578c28 0 49 22 49 51s-21 51 -49 51s-49 -22 -49 -51s21 -51 49 -51z" />
      <glyph d="M350 45h-1c-23 -33 -68 -56 -136 -56c-88 0 -162 46 -162 147c0 105 74 153 193 153h98c4 0 6 2 6 6v23c0 55 -26 80 -107 80c-54 0 -87 -15 -110 -33c-5 -4 -11 -3 -14 2l-37 66c-3 5 -2 10 2 13c39 28 92 47 171 47c147 0 201 -50 201 -168v-315c0 -6 -2 -8 -6 -10
c-64 -36 -85 -59 -85 -83c0 -16 10 -26 25 -26c9 0 15 3 25 8c6 3 10 2 13 -4l24 -50c3 -5 1 -10 -4 -13c-20 -14 -51 -22 -78 -22c-56 0 -95 30 -95 88c0 44 26 79 77 109v38zM241 80c69 0 107 27 107 82v37c0 4 -2 6 -6 6h-80c-72 0 -104 -20 -104 -65
c0 -40 29 -60 83 -60z" />
      <glyph d="M560 -11c-77 0 -135 30 -167 76h-1c-31 -55 -96 -76 -179 -76c-88 0 -162 46 -162 147c0 105 74 153 193 153h98c4 0 6 2 6 6v23c0 55 -26 80 -107 80c-54 0 -87 -15 -110 -33c-5 -4 -11 -3 -14 2l-37 66c-3 5 -2 10 2 13c39 28 92 47 171 47c72 0 133 -17 161 -50h2
c32 32 83 50 139 50c99 0 170 -51 197 -133c11 -34 16 -67 16 -145c0 -6 -4 -10 -11 -10h-297c-4 0 -6 -2 -6 -6c0 -14 3 -26 7 -37c16 -47 54 -73 108 -73s89 20 113 46c5 5 10 6 15 2l59 -52c5 -4 5 -9 1 -14c-41 -48 -108 -82 -197 -82zM655 295c0 17 -2 29 -6 41
c-13 39 -49 62 -94 62c-46 0 -82 -23 -95 -62c-4 -12 -6 -24 -6 -41c0 -4 2 -6 6 -6h189c4 0 6 2 6 6zM241 80c69 0 107 27 107 82v37c0 4 -2 6 -6 6h-80c-72 0 -104 -20 -104 -65c0 -40 29 -60 83 -60z" />
      <glyph d="M439 555h-68c-6 0 -9 4 -6 10l75 125c4 7 10 10 18 10h91c6 0 9 -5 5 -10l-95 -125c-6 -7 -11 -10 -20 -10zM560 -11c-77 0 -135 30 -167 76h-1c-31 -55 -96 -76 -179 -76c-88 0 -162 46 -162 147c0 105 74 153 193 153h98c4 0 6 2 6 6v23c0 55 -26 80 -107 80
c-54 0 -87 -15 -110 -33c-5 -4 -11 -3 -14 2l-37 66c-3 5 -2 10 2 13c39 28 92 47 171 47c72 0 133 -17 161 -50h2c32 32 83 50 139 50c99 0 170 -51 197 -133c11 -34 16 -67 16 -145c0 -6 -4 -10 -11 -10h-297c-4 0 -6 -2 -6 -6c0 -14 3 -26 7 -37c16 -47 54 -73 108 -73
s89 20 113 46c5 5 10 6 15 2l59 -52c5 -4 5 -9 1 -14c-41 -48 -108 -82 -197 -82zM655 295c0 17 -2 29 -6 41c-13 39 -49 62 -94 62c-46 0 -82 -23 -95 -62c-4 -12 -6 -24 -6 -41c0 -4 2 -6 6 -6h189c4 0 6 2 6 6zM241 80c69 0 107 27 107 82v37c0 4 -2 6 -6 6h-80
c-72 0 -104 -20 -104 -65c0 -40 29 -60 83 -60z" />
      <glyph d="M270 555h-68c-6 0 -9 4 -6 10l75 125c4 7 10 10 18 10h91c6 0 9 -5 5 -10l-95 -125c-6 -7 -11 -10 -20 -10zM261 -11c-97 0 -171 47 -199 133c-10 30 -15 68 -15 119s5 89 15 119c28 86 102 133 199 133c72 0 129 -29 167 -75c3 -4 4 -10 -1 -14l-63 -55
c-5 -4 -10 -3 -14 2c-24 27 -49 42 -89 42c-43 0 -76 -21 -90 -63c-8 -24 -10 -52 -10 -89s2 -66 10 -90c14 -41 47 -62 90 -62c40 0 65 15 89 42c4 5 9 5 14 1l63 -55c5 -4 4 -9 1 -14c-38 -45 -95 -74 -167 -74z" />
      <glyph d="M400 555h-63c-9 0 -13 2 -21 10l-57 59h-2l-57 -59c-8 -8 -12 -10 -21 -10h-63c-6 0 -8 5 -4 10l98 125c5 7 10 10 18 10h60c8 0 13 -3 18 -10l98 -125c4 -5 2 -10 -4 -10zM261 -11c-97 0 -171 47 -199 133c-10 30 -15 68 -15 119s5 89 15 119c28 86 102 133 199 133
c72 0 129 -29 167 -75c3 -4 4 -10 -1 -14l-63 -55c-5 -4 -10 -3 -14 2c-24 27 -49 42 -89 42c-43 0 -76 -21 -90 -63c-8 -24 -10 -52 -10 -89s2 -66 10 -90c14 -41 47 -62 90 -62c40 0 65 15 89 42c4 5 9 5 14 1l63 -55c5 -4 4 -9 1 -14c-38 -45 -95 -74 -167 -74z" />
      <glyph d="M288 553h-60c-8 0 -13 3 -18 10l-98 125c-4 5 -2 10 4 10h63c9 0 13 -2 21 -10l57 -59h2l57 59c8 8 12 10 21 10h63c6 0 8 -5 4 -10l-98 -125c-5 -7 -10 -10 -18 -10zM261 -11c-97 0 -171 47 -199 133c-10 30 -15 68 -15 119s5 89 15 119c28 86 102 133 199 133
c72 0 129 -29 167 -75c3 -4 4 -10 -1 -14l-63 -55c-5 -4 -10 -3 -14 2c-24 27 -49 42 -89 42c-43 0 -76 -21 -90 -63c-8 -24 -10 -52 -10 -89s2 -66 10 -90c14 -41 47 -62 90 -62c40 0 65 15 89 42c4 5 9 5 14 1l63 -55c5 -4 4 -9 1 -14c-38 -45 -95 -74 -167 -74z" />
      <glyph d="M261 -11c-97 0 -171 47 -199 133c-10 30 -15 68 -15 119s5 89 15 119c28 86 102 133 199 133c72 0 129 -29 167 -75c3 -4 4 -10 -1 -14l-63 -55c-5 -4 -10 -3 -14 2c-24 27 -49 42 -89 42c-43 0 -76 -21 -90 -63c-8 -24 -10 -52 -10 -89s2 -66 10 -90
c14 -41 47 -62 90 -62c40 0 65 15 89 42c4 5 9 5 14 1l63 -55c5 -4 4 -9 1 -14c-38 -45 -95 -74 -167 -74zM304 573h-93c-6 0 -10 4 -10 10v87c0 6 4 10 10 10h93c6 0 10 -4 10 -10v-87c0 -6 -4 -10 -10 -10z" />
      <glyph d="M237 -155h-78c-6 0 -9 4 -7 10l57 139c-69 14 -124 56 -147 128c-10 30 -15 68 -15 119s5 89 15 119c28 86 102 133 199 133c72 0 129 -29 167 -75c3 -4 4 -10 -1 -14l-63 -55c-5 -4 -10 -3 -14 2c-24 27 -49 42 -89 42c-43 0 -76 -21 -90 -63c-8 -24 -10 -52 -10 -89
s2 -66 10 -90c14 -41 47 -62 90 -62c40 0 65 15 89 42c4 5 9 5 14 1l63 -55c5 -4 4 -9 1 -14c-30 -36 -75 -63 -132 -71l-43 -137c-2 -7 -8 -10 -16 -10z" />
      <glyph d="M520 502c-6 0 -10 5 -10 11v157c0 6 4 10 10 10h83c6 0 10 -4 10 -10v-73c0 -8 -1 -13 -7 -19l-71 -69c-5 -5 -10 -7 -15 -7zM462 0h-92c-6 0 -10 4 -10 10v36h-1c-23 -33 -63 -57 -128 -57c-82 0 -142 39 -167 116c-12 37 -17 71 -17 136s5 99 17 136
c25 77 85 116 167 116c65 0 105 -24 128 -57h1v234c0 6 4 10 10 10h92c6 0 10 -4 10 -10v-660c0 -6 -4 -10 -10 -10zM260 89c46 0 77 22 90 62c7 22 10 46 10 90s-3 68 -10 90c-13 40 -44 62 -90 62c-45 0 -76 -22 -89 -62c-7 -22 -10 -46 -10 -90s3 -68 10 -90
c13 -40 44 -62 89 -62z" />
      <glyph d="M462 0h-92c-6 0 -10 4 -10 10v36h-1c-23 -33 -63 -57 -128 -57c-82 0 -142 39 -167 116c-12 37 -17 71 -17 136s5 99 17 136c25 77 85 116 167 116c65 0 105 -24 128 -57h1v105c0 4 -2 6 -6 6h-110c-6 0 -10 4 -10 10v66c0 6 4 10 10 10h110c4 0 6 2 6 6v31
c0 6 4 10 10 10h92c6 0 10 -4 10 -10v-31c0 -4 2 -6 6 -6h25c6 0 10 -4 10 -10v-66c0 -6 -4 -10 -10 -10h-25c-4 0 -6 -2 -6 -6v-531c0 -6 -4 -10 -10 -10zM260 89c46 0 77 22 90 62c7 22 10 46 10 90s-3 68 -10 90c-13 40 -44 62 -90 62c-45 0 -76 -22 -89 -62
c-7 -22 -10 -46 -10 -90s3 -68 10 -90c13 -40 44 -62 89 -62z" />
      <glyph d="M401 579l-63 -19l24 -32c76 -102 115 -191 115 -289c0 -55 -6 -88 -15 -116c-28 -85 -103 -134 -200 -134c-99 0 -171 48 -199 133c-9 28 -16 66 -16 103c0 38 6 79 15 107c26 80 89 127 168 127c27 0 47 -5 65 -17h2l-63 87l-91 -28c-6 -2 -11 0 -13 6l-17 58
c-2 6 0 11 7 13l65 19l-53 73c-3 5 0 10 6 10h99c8 0 13 -3 18 -10l31 -42l92 28c6 2 11 0 13 -6l17 -58c2 -6 0 -11 -7 -13zM365 226c0 27 -3 57 -10 79c-14 41 -47 62 -93 62c-44 0 -79 -21 -93 -62c-7 -22 -10 -52 -10 -79s3 -56 10 -78c14 -41 49 -62 93 -62
s79 21 93 62c7 22 10 51 10 78z" />
      <glyph d="M265 -11c-102 0 -174 50 -201 134c-10 31 -17 68 -17 118s6 88 16 119c27 84 101 133 197 133c99 0 171 -51 198 -133c11 -34 16 -67 16 -145c0 -6 -4 -10 -11 -10h-297c-4 0 -6 -2 -6 -6c0 -14 3 -26 7 -37c16 -47 54 -73 108 -73s89 20 113 46c5 5 10 6 15 2l59 -52
c5 -4 5 -9 1 -14c-41 -48 -109 -82 -198 -82zM361 295c0 17 -2 29 -6 41c-13 39 -49 62 -94 62c-46 0 -82 -23 -95 -62c-4 -12 -6 -24 -6 -41c0 -4 2 -6 6 -6h189c4 0 6 2 6 6zM312 555h-67c-9 0 -14 3 -20 10l-95 125c-4 5 -1 10 5 10h91c8 0 14 -3 18 -10l74 -125
c3 -6 0 -10 -6 -10z" />
      <glyph d="M278 555h-68c-6 0 -9 4 -6 10l75 125c4 7 10 10 18 10h91c6 0 9 -5 5 -10l-95 -125c-6 -7 -11 -10 -20 -10zM265 -11c-102 0 -174 50 -201 134c-10 31 -17 68 -17 118s6 88 16 119c27 84 101 133 197 133c99 0 171 -51 198 -133c11 -34 16 -67 16 -145
c0 -6 -4 -10 -11 -10h-297c-4 0 -6 -2 -6 -6c0 -14 3 -26 7 -37c16 -47 54 -73 108 -73s89 20 113 46c5 5 10 6 15 2l59 -52c5 -4 5 -9 1 -14c-41 -48 -109 -82 -198 -82zM361 295c0 17 -2 29 -6 41c-13 39 -49 62 -94 62c-46 0 -82 -23 -95 -62c-4 -12 -6 -24 -6 -41
c0 -4 2 -6 6 -6h189c4 0 6 2 6 6z" />
      <glyph d="M402 555h-63c-9 0 -13 2 -21 10l-57 59h-2l-57 -59c-8 -8 -12 -10 -21 -10h-63c-6 0 -8 5 -4 10l98 125c5 7 10 10 18 10h60c8 0 13 -3 18 -10l98 -125c4 -5 2 -10 -4 -10zM265 -11c-102 0 -174 50 -201 134c-10 31 -17 68 -17 118s6 88 16 119c27 84 101 133 197 133
c99 0 171 -51 198 -133c11 -34 16 -67 16 -145c0 -6 -4 -10 -11 -10h-297c-4 0 -6 -2 -6 -6c0 -14 3 -26 7 -37c16 -47 54 -73 108 -73s89 20 113 46c5 5 10 6 15 2l59 -52c5 -4 5 -9 1 -14c-41 -48 -109 -82 -198 -82zM361 295c0 17 -2 29 -6 41c-13 39 -49 62 -94 62
c-46 0 -82 -23 -95 -62c-4 -12 -6 -24 -6 -41c0 -4 2 -6 6 -6h189c4 0 6 2 6 6z" />
      <glyph d="M290 553h-60c-8 0 -13 3 -18 10l-98 125c-4 5 -2 10 4 10h63c9 0 13 -2 21 -10l57 -59h2l57 59c8 8 12 10 21 10h63c6 0 8 -5 4 -10l-98 -125c-5 -7 -10 -10 -18 -10zM265 -11c-102 0 -174 50 -201 134c-10 31 -17 68 -17 118s6 88 16 119c27 84 101 133 197 133
c99 0 171 -51 198 -133c11 -34 16 -67 16 -145c0 -6 -4 -10 -11 -10h-297c-4 0 -6 -2 -6 -6c0 -14 3 -26 7 -37c16 -47 54 -73 108 -73s89 20 113 46c5 5 10 6 15 2l59 -52c5 -4 5 -9 1 -14c-41 -48 -109 -82 -198 -82zM361 295c0 17 -2 29 -6 41c-13 39 -49 62 -94 62
c-46 0 -82 -23 -95 -62c-4 -12 -6 -24 -6 -41c0 -4 2 -6 6 -6h189c4 0 6 2 6 6z" />
      <glyph d="M396 573h-77c-6 0 -10 4 -10 10v87c0 6 4 10 10 10h77c6 0 10 -4 10 -10v-87c0 -6 -4 -10 -10 -10zM200 573h-77c-6 0 -10 4 -10 10v87c0 6 4 10 10 10h77c6 0 10 -4 10 -10v-87c0 -6 -4 -10 -10 -10zM265 -11c-102 0 -174 50 -201 134c-10 31 -17 68 -17 118
s6 88 16 119c27 84 101 133 197 133c99 0 171 -51 198 -133c11 -34 16 -67 16 -145c0 -6 -4 -10 -11 -10h-297c-4 0 -6 -2 -6 -6c0 -14 3 -26 7 -37c16 -47 54 -73 108 -73s89 20 113 46c5 5 10 6 15 2l59 -52c5 -4 5 -9 1 -14c-41 -48 -109 -82 -198 -82zM361 295
c0 17 -2 29 -6 41c-13 39 -49 62 -94 62c-46 0 -82 -23 -95 -62c-4 -12 -6 -24 -6 -41c0 -4 2 -6 6 -6h189c4 0 6 2 6 6z" />
      <glyph d="M265 -11c-102 0 -174 50 -201 134c-10 31 -17 68 -17 118s6 88 16 119c27 84 101 133 197 133c99 0 171 -51 198 -133c11 -34 16 -67 16 -145c0 -6 -4 -10 -11 -10h-297c-4 0 -6 -2 -6 -6c0 -14 3 -26 7 -37c16 -47 54 -73 108 -73s89 20 113 46c5 5 10 6 15 2l59 -52
c5 -4 5 -9 1 -14c-41 -48 -109 -82 -198 -82zM361 295c0 17 -2 29 -6 41c-13 39 -49 62 -94 62c-46 0 -82 -23 -95 -62c-4 -12 -6 -24 -6 -41c0 -4 2 -6 6 -6h189c4 0 6 2 6 6zM391 587h-263c-6 0 -10 4 -10 10v61c0 6 4 10 10 10h263c6 0 10 -4 10 -10v-61
c0 -6 -4 -10 -10 -10z" />
      <glyph d="M265 -11c-102 0 -174 50 -201 134c-10 31 -17 68 -17 118s6 88 16 119c27 84 101 133 197 133c99 0 171 -51 198 -133c11 -34 16 -67 16 -145c0 -6 -4 -10 -11 -10h-297c-4 0 -6 -2 -6 -6c0 -14 3 -26 7 -37c16 -47 54 -73 108 -73s89 20 113 46c5 5 10 6 15 2l59 -52
c5 -4 5 -9 1 -14c-41 -48 -109 -82 -198 -82zM361 295c0 17 -2 29 -6 41c-13 39 -49 62 -94 62c-46 0 -82 -23 -95 -62c-4 -12 -6 -24 -6 -41c0 -4 2 -6 6 -6h189c4 0 6 2 6 6zM260 554c-86 0 -140 50 -145 121c0 6 3 10 9 10h49c6 0 10 -3 12 -10c10 -31 34 -45 75 -45
s65 14 75 45c2 7 6 10 12 10h49c6 0 9 -4 9 -10c-5 -71 -59 -121 -145 -121z" />
      <glyph d="M265 -11c-102 0 -174 50 -201 134c-10 31 -17 68 -17 118s6 88 16 119c27 84 101 133 197 133c99 0 171 -51 198 -133c11 -34 16 -67 16 -145c0 -6 -4 -10 -11 -10h-297c-4 0 -6 -2 -6 -6c0 -14 3 -26 7 -37c16 -47 54 -73 108 -73s89 20 113 46c5 5 10 6 15 2l59 -52
c5 -4 5 -9 1 -14c-41 -48 -109 -82 -198 -82zM361 295c0 17 -2 29 -6 41c-13 39 -49 62 -94 62c-46 0 -82 -23 -95 -62c-4 -12 -6 -24 -6 -41c0 -4 2 -6 6 -6h189c4 0 6 2 6 6zM306 573h-93c-6 0 -10 4 -10 10v87c0 6 4 10 10 10h93c6 0 10 -4 10 -10v-87
c0 -6 -4 -10 -10 -10z" />
      <glyph d="M265 -11c-102 0 -174 50 -201 134c-10 31 -17 68 -17 118s6 88 16 119c27 84 101 133 197 133c99 0 171 -51 198 -133c11 -34 16 -67 16 -145c0 -6 -4 -10 -11 -10h-297c-4 0 -6 -2 -6 -6c0 -14 3 -26 7 -37c16 -47 54 -73 108 -73s89 20 113 46c5 5 10 6 15 2l59 -52
c5 -4 5 -9 1 -14c-12 -14 -28 -29 -46 -41c-73 -67 -81 -94 -81 -113c0 -16 9 -26 24 -26c9 0 15 3 25 8c6 3 10 2 13 -4l24 -50c3 -5 1 -10 -4 -13c-20 -14 -51 -22 -77 -22c-57 0 -96 30 -96 88c0 30 11 57 40 91h-20zM361 295c0 17 -2 29 -6 41c-13 39 -49 62 -94 62
c-46 0 -82 -23 -95 -62c-4 -12 -6 -24 -6 -41c0 -4 2 -6 6 -6h189c4 0 6 2 6 6z" />
      <glyph d="M398 555h-63c-9 0 -13 2 -21 10l-57 59h-2l-57 -59c-8 -8 -12 -10 -21 -10h-63c-6 0 -8 5 -4 10l98 125c5 7 10 10 18 10h60c8 0 13 -3 18 -10l98 -125c4 -5 2 -10 -4 -10zM238 -191c-67 0 -138 28 -175 72c-4 5 -4 9 1 14l59 59c5 5 10 5 15 0c30 -29 65 -45 105 -45
c74 0 108 40 108 115v45h-1c-22 -34 -63 -56 -125 -56c-81 0 -139 41 -164 117c-12 37 -16 70 -16 123s4 85 16 122c25 77 83 118 164 118c62 0 103 -22 125 -57h1v36c0 6 4 10 10 10h92c6 0 10 -4 10 -10v-442c0 -138 -77 -221 -225 -221zM254 112c46 0 73 22 86 62
c8 22 11 46 11 79c0 32 -3 56 -11 79c-13 39 -40 61 -86 61c-45 0 -72 -22 -85 -61c-8 -23 -11 -47 -11 -79c0 -33 3 -57 11 -79c13 -40 40 -62 85 -62z" />
      <glyph d="M238 -191c-67 0 -138 28 -175 72c-4 5 -4 9 1 14l59 59c5 5 10 5 15 0c30 -29 65 -45 105 -45c74 0 108 40 108 115v45h-1c-22 -34 -63 -56 -125 -56c-81 0 -139 41 -164 117c-12 37 -16 70 -16 123s4 85 16 122c25 77 83 118 164 118c62 0 103 -22 125 -57h1v36
c0 6 4 10 10 10h92c6 0 10 -4 10 -10v-442c0 -138 -77 -221 -225 -221zM254 112c46 0 73 22 86 62c8 22 11 46 11 79c0 32 -3 56 -11 79c-13 39 -40 61 -86 61c-45 0 -72 -22 -85 -61c-8 -23 -11 -47 -11 -79c0 -33 3 -57 11 -79c13 -40 40 -62 85 -62zM256 554
c-86 0 -140 50 -145 121c0 6 3 10 9 10h49c6 0 10 -3 12 -10c10 -31 34 -45 75 -45s65 14 75 45c2 7 6 10 12 10h49c6 0 9 -4 9 -10c-5 -71 -59 -121 -145 -121z" />
      <glyph d="M238 -191c-67 0 -138 28 -175 72c-4 5 -4 9 1 14l59 59c5 5 10 5 15 0c30 -29 65 -45 105 -45c74 0 108 40 108 115v45h-1c-22 -34 -63 -56 -125 -56c-81 0 -139 41 -164 117c-12 37 -16 70 -16 123s4 85 16 122c25 77 83 118 164 118c62 0 103 -22 125 -57h1v36
c0 6 4 10 10 10h92c6 0 10 -4 10 -10v-442c0 -138 -77 -221 -225 -221zM254 112c46 0 73 22 86 62c8 22 11 46 11 79c0 32 -3 56 -11 79c-13 39 -40 61 -86 61c-45 0 -72 -22 -85 -61c-8 -23 -11 -47 -11 -79c0 -33 3 -57 11 -79c13 -40 40 -62 85 -62zM302 573h-93
c-6 0 -10 4 -10 10v87c0 6 4 10 10 10h93c6 0 10 -4 10 -10v-87c0 -6 -4 -10 -10 -10z" />
      <glyph d="M298 572h-83c-6 0 -10 4 -10 10v69c0 8 1 13 7 19l71 69c5 5 10 7 15 7c6 0 10 -5 10 -11v-153c0 -6 -4 -10 -10 -10zM238 -191c-67 0 -138 28 -175 72c-4 5 -4 9 1 14l59 59c5 5 10 5 15 0c30 -29 65 -45 105 -45c74 0 108 40 108 115v45h-1c-22 -34 -63 -56 -125 -56
c-81 0 -139 41 -164 117c-12 37 -16 70 -16 123s4 85 16 122c25 77 83 118 164 118c62 0 103 -22 125 -57h1v36c0 6 4 10 10 10h92c6 0 10 -4 10 -10v-442c0 -138 -77 -221 -225 -221zM254 112c46 0 73 22 86 62c8 22 11 46 11 79c0 32 -3 56 -11 79c-13 39 -40 61 -86 61
c-45 0 -72 -22 -85 -61c-8 -23 -11 -47 -11 -79c0 -33 3 -57 11 -79c13 -40 40 -62 85 -62z" />
      <glyph d="M470 0h-92c-6 0 -10 4 -10 10v278c0 62 -31 105 -91 105c-58 0 -92 -43 -92 -105v-278c0 -6 -4 -10 -10 -10h-92c-6 0 -10 4 -10 10v660c0 6 4 10 10 10h92c6 0 10 -4 10 -10v-233h1c21 30 63 56 127 56c103 0 167 -76 167 -179v-304c0 -6 -4 -10 -10 -10zM420 753h-63
c-9 0 -13 2 -21 10l-57 59h-2l-57 -59c-8 -8 -12 -10 -21 -10h-63c-6 0 -8 5 -4 10l98 125c5 7 10 10 18 10h60c8 0 13 -3 18 -10l98 -125c4 -5 2 -10 -4 -10z" />
      <glyph d="M470 0h-92c-6 0 -10 4 -10 10v278c0 62 -31 105 -91 105c-58 0 -92 -43 -92 -105v-278c0 -6 -4 -10 -10 -10h-92c-6 0 -10 4 -10 10v531c0 4 -2 6 -6 6h-25c-6 0 -10 4 -10 10v66c0 6 4 10 10 10h25c4 0 6 2 6 6v31c0 6 4 10 10 10h92c6 0 10 -4 10 -10v-31
c0 -4 2 -6 6 -6h110c6 0 10 -4 10 -10v-66c0 -6 -4 -10 -10 -10h-110c-4 0 -6 -2 -6 -6v-104h1c21 30 63 56 127 56c103 0 167 -76 167 -179v-304c0 -6 -4 -10 -10 -10z" />
      <glyph d="M175 0h-92c-6 0 -10 4 -10 10v462c0 6 4 10 10 10h92c6 0 10 -4 10 -10v-462c0 -6 -4 -10 -10 -10z" />
      <glyph d="M175 0h-92c-6 0 -10 4 -10 10v462c0 6 4 10 10 10h92c6 0 10 -4 10 -10v-462c0 -6 -4 -10 -10 -10zM167 555h-67c-9 0 -14 3 -20 10l-95 125c-4 5 -1 10 5 10h91c8 0 14 -3 18 -10l74 -125c3 -6 0 -10 -6 -10z" />
      <glyph d="M161 555h-68c-6 0 -9 4 -6 10l75 125c4 7 10 10 18 10h91c6 0 9 -5 5 -10l-95 -125c-6 -7 -11 -10 -20 -10zM175 0h-92c-6 0 -10 4 -10 10v462c0 6 4 10 10 10h92c6 0 10 -4 10 -10v-462c0 -6 -4 -10 -10 -10z" />
      <glyph d="M175 0h-92c-6 0 -10 4 -10 10v462c0 6 4 10 10 10h92c6 0 10 -4 10 -10v-462c0 -6 -4 -10 -10 -10zM129 554c-86 0 -140 50 -145 121c0 6 3 10 9 10h49c6 0 10 -3 12 -10c10 -31 34 -45 75 -45s65 14 75 45c2 7 6 10 12 10h49c6 0 9 -4 9 -10c-5 -71 -59 -121 -145 -121z
" />
      <glyph d="M271 555h-63c-9 0 -13 2 -21 10l-57 59h-2l-57 -59c-8 -8 -12 -10 -21 -10h-63c-6 0 -8 5 -4 10l98 125c5 7 10 10 18 10h60c8 0 13 -3 18 -10l98 -125c4 -5 2 -10 -4 -10zM175 0h-92c-6 0 -10 4 -10 10v462c0 6 4 10 10 10h92c6 0 10 -4 10 -10v-462
c0 -6 -4 -10 -10 -10z" />
      <glyph d="M175 0h-92c-6 0 -10 4 -10 10v462c0 6 4 10 10 10h92c6 0 10 -4 10 -10v-462c0 -6 -4 -10 -10 -10zM189 561c-26 0 -44 8 -67 20c-20 11 -36 18 -56 18c-29 0 -48 -15 -67 -31c-5 -4 -9 -2 -9 2v61c0 8 2 12 8 19c19 20 44 34 72 34c26 0 44 -8 67 -20
c20 -11 36 -18 57 -18c28 0 47 15 66 31c5 4 9 2 9 -2v-61c0 -8 -2 -12 -8 -19c-19 -20 -44 -34 -72 -34z" />
      <glyph d="M266 573h-77c-6 0 -10 4 -10 10v87c0 6 4 10 10 10h77c6 0 10 -4 10 -10v-87c0 -6 -4 -10 -10 -10zM70 573h-77c-6 0 -10 4 -10 10v87c0 6 4 10 10 10h77c6 0 10 -4 10 -10v-87c0 -6 -4 -10 -10 -10zM175 0h-92c-6 0 -10 4 -10 10v462c0 6 4 10 10 10h92
c6 0 10 -4 10 -10v-462c0 -6 -4 -10 -10 -10z" />
      <glyph d="M175 0h-92c-6 0 -10 4 -10 10v462c0 6 4 10 10 10h92c6 0 10 -4 10 -10v-462c0 -6 -4 -10 -10 -10zM261 587h-263c-6 0 -10 4 -10 10v61c0 6 4 10 10 10h263c6 0 10 -4 10 -10v-61c0 -6 -4 -10 -10 -10z" />
      <glyph d="M175 573h-92c-6 0 -10 4 -10 10v87c0 6 4 10 10 10h92c6 0 10 -4 10 -10v-87c0 -6 -4 -10 -10 -10zM119 -190c-56 0 -96 30 -96 88c0 37 19 71 55 103c-4 2 -5 5 -5 9v462c0 6 4 10 10 10h92c6 0 10 -4 10 -10v-462c0 -5 -1 -7 -5 -10c-52 -40 -66 -63 -66 -83
c0 -16 9 -26 24 -26c8 0 16 3 25 8c6 3 10 2 13 -4l25 -50c3 -5 1 -10 -4 -13c-21 -14 -51 -22 -78 -22z" />
      <glyph d="M23 -180h-28c-6 0 -10 4 -10 10v80c0 6 4 10 10 10h22c40 0 56 13 56 57v495c0 6 4 10 10 10h92c6 0 10 -4 10 -10v-493c0 -111 -57 -159 -162 -159z" />
      <glyph d="M23 -180h-28c-6 0 -10 4 -10 10v80c0 6 4 10 10 10h22c40 0 56 13 56 57v495c0 6 4 10 10 10h92c6 0 10 -4 10 -10v-493c0 -111 -57 -159 -162 -159zM271 555h-63c-9 0 -13 2 -21 10l-57 59h-2l-57 -59c-8 -8 -12 -10 -21 -10h-63c-6 0 -8 5 -4 10l98 125
c5 7 10 10 18 10h60c8 0 13 -3 18 -10l98 -125c4 -5 2 -10 -4 -10z" />
      <glyph d="M226 -228c-6 0 -10 5 -10 11v153c0 6 4 10 10 10h83c6 0 10 -4 10 -10v-69c0 -8 -1 -13 -7 -19l-71 -69c-5 -5 -10 -7 -15 -7zM493 0h-105c-7 0 -12 3 -16 10l-122 202l-65 -75v-127c0 -6 -4 -10 -10 -10h-92c-6 0 -10 4 -10 10v660c0 6 4 10 10 10h92c6 0 10 -4 10 -10
v-392l165 194c6 7 11 10 19 10h102c6 0 8 -6 4 -10l-153 -176l176 -286c3 -4 1 -10 -5 -10z" />
      <glyph d="M493 0h-105c-7 0 -12 3 -16 10l-122 202l-65 -75v-127c0 -6 -4 -10 -10 -10h-92c-6 0 -10 4 -10 10v462c0 6 4 10 10 10h92c6 0 10 -4 10 -10v-194l165 194c6 7 11 10 19 10h102c6 0 8 -6 4 -10l-153 -176l176 -286c3 -4 1 -10 -5 -10z" />
      <glyph d="M164 761h-71c-6 0 -8 5 -4 10l88 107c5 6 10 10 19 10h98c6 0 10 -5 5 -10l-117 -109c-7 -7 -11 -8 -18 -8zM247 -6h-44c-94 0 -132 45 -132 138v538c0 6 4 10 10 10h92c6 0 10 -4 10 -10v-532c0 -33 13 -44 42 -44h22c6 0 10 -4 10 -10v-80c0 -6 -4 -10 -10 -10z" />
      <glyph d="M231 502c-6 0 -10 5 -10 11v157c0 6 4 10 10 10h83c6 0 10 -4 10 -10v-73c0 -8 -1 -13 -7 -19l-71 -69c-5 -5 -10 -7 -15 -7zM247 -6h-44c-94 0 -132 45 -132 138v538c0 6 4 10 10 10h92c6 0 10 -4 10 -10v-532c0 -33 13 -44 42 -44h22c6 0 10 -4 10 -10v-80
c0 -6 -4 -10 -10 -10z" />
      <glyph d="M125 -228c-6 0 -10 5 -10 11v153c0 6 4 10 10 10h83c6 0 10 -4 10 -10v-69c0 -8 -1 -13 -7 -19l-71 -69c-5 -5 -10 -7 -15 -7zM247 -6h-44c-94 0 -132 45 -132 138v538c0 6 4 10 10 10h92c6 0 10 -4 10 -10v-532c0 -33 13 -44 42 -44h22c6 0 10 -4 10 -10v-80
c0 -6 -4 -10 -10 -10z" />
      <glyph d="M247 367l-64 -33v-196c0 -33 13 -44 42 -44h22c6 0 10 -4 10 -10v-80c0 -6 -4 -10 -10 -10h-44c-94 0 -132 45 -132 138v151l-33 -17c-6 -3 -10 0 -10 6v74c0 7 2 11 10 15l33 17v292c0 6 4 10 10 10h92c6 0 10 -4 10 -10v-241l64 33c6 3 10 0 10 -6v-74
c0 -7 -2 -11 -10 -15z" />
      <glyph d="M247 -6h-44c-94 0 -132 45 -132 138v538c0 6 4 10 10 10h92c6 0 10 -4 10 -10v-532c0 -33 13 -44 42 -44h22c6 0 10 -4 10 -10v-80c0 -6 -4 -10 -10 -10zM355 279h-100c-6 0 -10 4 -10 10v102c0 6 4 10 10 10h100c6 0 10 -4 10 -10v-102c0 -6 -4 -10 -10 -10z" />
      <glyph d="M281 555h-68c-6 0 -9 4 -6 10l75 125c4 7 10 10 18 10h91c6 0 9 -5 5 -10l-95 -125c-6 -7 -11 -10 -20 -10zM470 0h-92c-6 0 -10 4 -10 10v278c0 62 -31 105 -91 105c-58 0 -92 -43 -92 -105v-278c0 -6 -4 -10 -10 -10h-92c-6 0 -10 4 -10 10v462c0 6 4 10 10 10h92
c6 0 10 -4 10 -10v-35h1c21 30 63 56 127 56c103 0 167 -76 167 -179v-304c0 -6 -4 -10 -10 -10z" />
      <glyph d="M303 553h-60c-8 0 -13 3 -18 10l-98 125c-4 5 -2 10 4 10h63c9 0 13 -2 21 -10l57 -59h2l57 59c8 8 12 10 21 10h63c6 0 8 -5 4 -10l-98 -125c-5 -7 -10 -10 -18 -10zM470 0h-92c-6 0 -10 4 -10 10v278c0 62 -31 105 -91 105c-58 0 -92 -43 -92 -105v-278
c0 -6 -4 -10 -10 -10h-92c-6 0 -10 4 -10 10v462c0 6 4 10 10 10h92c6 0 10 -4 10 -10v-35h1c21 30 63 56 127 56c103 0 167 -76 167 -179v-304c0 -6 -4 -10 -10 -10z" />
      <glyph d="M470 0h-92c-6 0 -10 4 -10 10v278c0 62 -31 105 -91 105c-58 0 -92 -43 -92 -105v-278c0 -6 -4 -10 -10 -10h-92c-6 0 -10 4 -10 10v462c0 6 4 10 10 10h92c6 0 10 -4 10 -10v-35h1c21 30 63 56 127 56c103 0 167 -76 167 -179v-304c0 -6 -4 -10 -10 -10zM332 561
c-26 0 -44 8 -67 20c-20 11 -36 18 -56 18c-29 0 -48 -15 -67 -31c-5 -4 -9 -2 -9 2v61c0 8 2 12 8 19c19 20 44 34 72 34c26 0 44 -8 67 -20c20 -11 36 -18 57 -18c28 0 47 15 66 31c5 4 9 2 9 -2v-61c0 -8 -2 -12 -8 -19c-19 -20 -44 -34 -72 -34z" />
      <glyph d="M233 -228c-6 0 -10 5 -10 11v153c0 6 4 10 10 10h83c6 0 10 -4 10 -10v-69c0 -8 -1 -13 -7 -19l-71 -69c-5 -5 -10 -7 -15 -7zM470 0h-92c-6 0 -10 4 -10 10v278c0 62 -31 105 -91 105c-58 0 -92 -43 -92 -105v-278c0 -6 -4 -10 -10 -10h-92c-6 0 -10 4 -10 10v462
c0 6 4 10 10 10h92c6 0 10 -4 10 -10v-35h1c21 30 63 56 127 56c103 0 167 -76 167 -179v-304c0 -6 -4 -10 -10 -10z" />
      <glyph d="M307 555h-67c-9 0 -14 3 -20 10l-95 125c-4 5 -1 10 5 10h91c8 0 14 -3 18 -10l74 -125c3 -6 0 -10 -6 -10zM262 -11c-98 0 -172 49 -199 133c-11 34 -16 66 -16 119s5 85 16 119c27 84 101 133 199 133c97 0 171 -49 198 -133c11 -34 16 -66 16 -119s-5 -85 -16 -119
c-27 -84 -101 -133 -198 -133zM262 89c45 0 76 23 90 63c8 25 10 48 10 89s-2 63 -10 89c-14 40 -45 63 -90 63s-77 -23 -91 -63c-8 -26 -10 -48 -10 -89s2 -64 10 -89c14 -40 46 -63 91 -63z" />
      <glyph d="M284 555h-68c-6 0 -9 4 -6 10l75 125c4 7 10 10 18 10h91c6 0 9 -5 5 -10l-95 -125c-6 -7 -11 -10 -20 -10zM262 -11c-98 0 -172 49 -199 133c-11 34 -16 66 -16 119s5 85 16 119c27 84 101 133 199 133c97 0 171 -49 198 -133c11 -34 16 -66 16 -119s-5 -85 -16 -119
c-27 -84 -101 -133 -198 -133zM262 89c45 0 76 23 90 63c8 25 10 48 10 89s-2 63 -10 89c-14 40 -45 63 -90 63s-77 -23 -91 -63c-8 -26 -10 -48 -10 -89s2 -64 10 -89c14 -40 46 -63 91 -63z" />
      </font>
</defs>
</svg>
